Доктор Стрэндж

Лицензия

Добыча

MVO

Дом дракона

1 сезон

Тор

Лицензия

Мэверик

Лицензия

Там, где раки поют

MVO

Властелин колец

1 сезон

Ultimate

pack

Рекомендуем

30

Repack

ВАЖНО

ВАЖНО

Ghostwire

RePack

jed

RePack

nioh2

RePack

RDR2

RePack

NEED FOR SPEED™ PAYBACK

RePack

скачать торрент

Кинопоиск HD

Острые козырьки 6 сезон

6 сезон

FAR CRY 6

RePack

скачать торрент

Лицензия

скачать торрент

MVO

1

1 сезон

скачать торрент

1 сезон

скачать торрент

Лицензия

  

Большой концерт (Вера Строева) [1951, СССР, музыка, DVDRip от AVP Studio]

Большой концерт через торрент piratbit.org

Размер: 745 MB | Добавлен: 6 лет 10 мес. назад | Торрент скачан:17 раз
Смотреть онлайн Большой концерт | Скачать   

26-11-2015 09:17 Большой концерт Скачать торрент  

Большой концерт
Страна: СССР
Производство: Мосфильм

Жанр: биография
Год выпуска: 1951
Продолжительность: 01:42:11

Перевод: Не требуется
Cубтитры: нет
Оригинальная аудиодорожка: русский

Режиссер: Вера Строева

В ролях:
Валерия Барсова, Ксения Держинская, Иван Козловский, Ольга Лепешинская, Максим Михайлов, Александр Пирогов, Марк Рейзен, Галина Уланова, Михаил Габович, Вера Давыдова, Алексей Ермолаев, Мария Максакова (II), Асаф Мессерер, Сергей Мигай, Николай Озеров (II), Марина Семёнова, Сергей Корень, Юрий Кондратов, Василий Макаров, Майя Плисецкая, Владимир Преображенский, Александр Плотников, Александр Радунский, Евгения Смоленская, Георгий Фарманянц, Елена Чикваидзе, Лариса Авдеева, Александр Дегтярь, Мария Звездина, Евгения Ильющенко, Александр Лапаури, Александр Огнивцев, Тихон Черняков, Александр Мелик-Пашаев, Ростислав Захаров, Леонид Лавровский, Юрий Файер, Василий Небольсин, Константин Массалитинов, Игорь Бельский, Николай Голованов, Мария Мордасова, Николай Тимофеев, Иван Руденко (II)...
Полный список актёров

Описание:
В Москву на спектакль Большого театра приезжают колхозники. После спектакля благодарные зрители приглашают артистов театра на празднование двадцатилетнего юбилея колхоза "Победа". На празднике почетных гостей восхищает пение молодых колхозников Званцевой и Уфимцева. Осенью они поступают в Московскую консерваторию...

Источник: DVD5 R5
Качество видео: DVDRip
Формат видео: AVI

Видео: 576x432 (4:3), 25 fps, XviD ~ 881 kbps avg, 0.142 bit/pixel
Аудио: 48 kHz, MP3 2.0, 128 kbps

Раздача от:
Общее
Полное имя : Bolshoy.koncert.1951.DVDRip-745_[New-team]_by_AVP_Studio.avi
Формат : AVI
Формат/Информация : Audio Video Interleave
Размер файла : 745 Мбайт
Продолжительность : 1 ч. 42 м.
Общий поток : 1019 Кбит/сек
Программа кодирования : VirtualDubMod 1.5.10.3 | www.virtualdub-fr.org || (build 2550/release)
Библиотека кодирования : VirtualDubMod build 2550/release

Видео
Идентификатор : 0
Формат : MPEG-4 Visual
Профиль формата : Advanced Simple@L5
Параметр BVOP формата : 1
Параметр QPel формата : Нет
Параметр GMC формата : Без точки перехода
Параметр матрицы формата : Выборочная
Идентификатор кодека : XVID
Идентификатор кодека/Подсказка : XviD
Продолжительность : 1 ч. 42 м.
Битрейт : 881 Кбит/сек
Ширина : 576 пикселей
Высота : 432 пикселя
Соотношение сторон : 4:3
Частота кадров : 25,000 кадров/сек
Цветовое пространство : YUV
Субдискретизация насыщенности : 4:2:0
Битовая глубина : 8 бит
Тип развёртки : Прогрессивная
Метод сжатия : С потерями
Бит/(Пиксели*Кадры) : 0.142
Размер потока : 644 Мбайт (86%)
Библиотека кодирования : XviD 73

Аудио
Идентификатор : 1
Формат : MPEG Audio
Версия формата : Version 1
Профиль формата : Layer 3
Идентификатор кодека : 55
Идентификатор кодека/Подсказка : MP3
Продолжительность : 1 ч. 42 м.
Вид битрейта : Постоянный
Битрейт : 128 Кбит/сек
Каналы : 2 канала
Частота : 48,0 КГц
Метод сжатия : С потерями
Размер потока : 93,5 Мбайт (13%)
Выравнивание : Соединение по промежуткам
Продолжительность промежутка : 40 мс. (1,00 видеокадр)
Время предзагрузки промежутка : 504 мс.
Библиотека кодирования : LAME3.99r
Настройки программы : -m s -V 4 -q 2 -lowpass 17 -b 128



Скачать Большой концерт через торрент http://i008.radikal.ru/1511/d1/72ac5e445563.png Скачать, смотреть онлайн Большой концерт бесплантно в хорошем качестве Описание:В Москву на спектакль Большого театра приезжают колхозники. После спектакля благодарные зрители приглашают артистов театра на ... 5 10 1
Торрент: Зарегистрирован [2015-11-26 09:17] · скачан: 17 раз
Статус: √ проверено
Размер: 745 MB
Как cкачать? Как скачать Большой концерт через торрент | UTorrent

% Раздел Тема Автор DL S | L
Кино СССР [ 1.46 GB ] Большой концерт | | DVDRip-AVC от AVP Studio AVP Studio Скачать
1 | 0
Кино СССР [ 1.46 GB ] Большой концерт | | DVDRip от AVP Studio AVP Studio Скачать
1 | 0

28-11-2019 20:33  

Отключить вcю реклaмy на сайте

    Дорогой пользователь! Огромная просьба, поблагодарите релизера, оцените раздачу и оставьте свои комментарий, если Вы скачали Большой концерт через торрент бесплатно!!
    Комментировать посты могут только пользователи прошедшие не сложную регистрацию
    Показать сообщения:    


    Большой концерт через торрент
    Скачать бесплатно Большой концерт
    Большой концерт скачать торрент
    Большой концерт смотреть онлайн
    Cкачать фильм Большой концерт бесплатно
    Большой концерт скачать торрент в хорошем качестве
    Большой концерт смотреть онлайн бесплатно в хорошем качестве
    Вы не можете начинать темы
    Вы не можете отвечать на сообщения
    Вы не можете редактировать свои сообщения
    Вы не можете удалять свои сообщения
    Вы не можете голосовать в опросах
    Вы не можете прикреплять файлы к сообщениям
    Вы можете скачивать файлы