Присоединяйтесь к нам в Telegram!, здесь всегда актуальный адрес сайта, оперативная поддержка и многое другое!!

>

5.9

iTunes

7.4

iTunes

9.4

1 сезон

1

7.4

2 сезон

7.2

iTunes

7.3

1 сезон

13

6.1

iTunes

8.3

Пиратка

30

ULTIMATE

pack

9.9

Лицензия

ВАЖНО

ИГРА 18+

pack

7.3

RePack

MK11

7.7

RePack

jed

7.8

RePack

fifa19

8.5

RePack

RDR2

RePack

NEED FOR SPEED™ PAYBACK

5 сезон

9 сезон

Бесстыжие 9 сезон

Все сериалы

все сериалы на PB.wtf

RePack

FAR CRY 5

Anonymous, добрый вечер, мы катастрофически не успеваем собрать деньги на оплату серверов, помогите нам пожалуйста 5,10,15р., для нас важна любая помощь . В качестве благодарности мы отключим Вам всю рекламу на сайте (укажите свой ник в строку Ваше имя)!

×
  
Magnet ссылка

Лес / The Woods (Корин Харди) [2015, ужасы, WEB-DLRip, Любительский (двухголосый)[Sunshine Studio] piratbit.org

Лес через торрент piratbit.org

Размер: 1.45 GB | Добавлен: 6 лет назад | Торрент скачан:237 раз
Смотреть онлайн Лес | Скачать    Ребята, помогите собрать деньги на оплату серверов!!!

27-11-2015 04:29 Лес Скачать торрент  


Лес / The Woods
««Nature has a dark side»»

ИНФОРМАЦИЯ:
Год выпуска:2015
Страна: Великобритания, США, Ирландия
Жанр: ужасы
Продолжительность: 01:36:51
Перевод: Любительский (двухголосый)[Sunshine Studio]
Режиссер: Корин Харди

В Ролях:


Джозеф Моул (Adam Hitchens), Бояна Новакович (Clare Hitchens), Майкл МакЭлхаттон (Colm Donnelly), Гари Лайдон (Doyle), Стюарт Грэхэм (Contractor Paul Williams), Конор Крэйг Стефенс (Sinuous Hallow), Joss Wyre (Small Hallow), Шон Тайрел (Crawler Hallow 1), James Meryk (Crawler Hallow 2), Билли Трэйнор (Angry Woman 1), Алан Арчболд (Radio Reporter), Люк Уолш (Colm's Son)

Описание:
Глубоко во тьме уединенных лесов сельской Ирландии обитает древнее зло. Суеверные местные жители боятся проклятых существ, ведущих охоту на заблудших, поэтому эти места хранятся в строжайшем секрете от цивилизации. Но когда защитник природных ресурсов вместе со своей женой и маленьким ребенком приезжает из Лондона, чтобы рассмотреть земли для будущего строительства, то его действия невольно тревожат орду демонических сил...

  • Мировая премьера:25 января 2015

    ТЕХ.ДАННЫЕ:
    Качество: WEB-DLRip
    Формат: AVI
    Видео: XviD, 720x304 (2.35:1), 1864 kbps, 24 fps, 0,355 bpp
    Аудио: AC3 / 2.0 / 48 kHz / 192 kbps / 16 bit


    General
    Complete name : D:\Торенты\The.Hall0w.2015.L2.WEB-DLRip.avi
    Format : AVI
    Format/Info : Audio Video Interleave
    File size : 1.45 GiB
    Duration : 1h 36mn
    Overall bit rate : 2 150 Kbps
    Writing application : VirtualDubMod 1.5.10.3 | www.virtualdub-fr.org || (build 2550/release)
    Writing library : VirtualDubMod build 2550/release

    Video
    ID : 0
    Format : MPEG-4 Visual
    Format profile : Advanced Simple@L5
    Format settings, BVOP : 2
    Format settings, QPel : No
    Format settings, GMC : No warppoints
    Format settings, Matrix : Default (MPEG)
    Codec ID : XVID
    Codec ID/Hint : XviD
    Duration : 1h 36mn
    Bit rate : 1 864 Kbps
    Width : 720 pixels
    Height : 304 pixels
    Display aspect ratio : 2.35:1
    Frame rate : 24.000 fps
    Color space : YUV
    Chroma subsampling : 4:2:0
    Bit depth : 8 bits
    Scan type : Progressive
    Compression mode : Lossy
    Bits/(Pixel*Frame) : 0.355
    Stream size : 1.26 GiB (87%)
    Writing library : XviD 1.2.1 (UTC 2008-12-04)

    Audio
    ID : 1
    Format : AC-3
    Format/Info : Audio Coding 3
    Mode extension : CM (complete main)
    Codec ID : 2000
    Duration : 1h 36mn
    Bit rate mode : Constant
    Bit rate : 192 Kbps
    Channel(s) : 2 channels
    Channel positions : Front: L R
    Sampling rate : 48.0 KHz
    Bit depth : 16 bits
    Compression mode : Lossy
    Stream size : 133 MiB (9%)
    Alignment : Split accross interleaves
    Скриншоты:



    © Оформление by .::Ворон::.
    piratbit.org



  • Скачать Лес через торрент https://pic1.kartinco.top/images/61/ordi9.jpg Скачать, смотреть онлайн Лес бесплантно в хорошем качестве Описание: Глубоко во тьме уединенных лесов сельской Ирландии обитает древнее зло. Суеверные местные жители боятся проклятых существ, ... 7.8 10 8
    Info! Золотая раздача, скачанное не засчитывается.
    Торрент: Зарегистрирован [2015-11-27 04:29] · скачан: 237 раз
    Статус: T временная
    Размер: 1.45 GB
    Как cкачать? Как скачать Лес через торрент | UTorrent

    % Раздел Тема Автор DL S | L
    Фильмы 2019-2020 [DVDrip, WEB-DLRip, HDrip] (DUB, MVO) [ 1.59 GB ] Деревня проклятых / Деревня в лесу / The Village in the Woods [2019 HDRip-AVC] от ExKinoRay Lithuania Скачать
    3 | 0
    Фильмы [HD 720p, 1080p] (Хороший звук DUB, MVO) [ 3.37 GB ] Деревня проклятых / Деревня в лесу / The Village in the Woods [2019 BDRip 720p] bober100 Скачать
    4 | 0
    Фильмы [HD 720p, 1080p] (Хороший звук DUB, MVO) [ 6.75 GB ] Деревня проклятых / Деревня в лесу / The Village in the Woods [2019 BDRip 1080p] bober100 Скачать
    5 | 0
    Фильмы 2019-2020 [DVDrip, WEB-DLRip, HDrip] (DUB, MVO) [ 1.42 GB ] Деревня проклятых / Деревня в лесу / The Village in the Woods [2019 BDRip] bober100 Скачать
    3 | 0
    Фильмы 2019-2020 [DVDrip, WEB-DLRip, HDrip] (DUB, MVO) [ 1.42 GB ] Проклятый лес / Ведьмы в лесу / Witches in the Woods [2019 BDRip] MVO Twi7ter Скачать
    3 | 0
    T Релизы по Парсеру [Игры, Сериалы и Фильмы и другое...] [ 1.45 GB ] Никто сегодня не спит в лесу / В лесу сегодня не уснет никто / W lesie dzis nie zasnie nikt / Nobody Sleeps in the Woods Tonight [2020 WEB-DLRip] VO killermax2013 Скачать
    1 | 0
    Фильмы [HD 720p, 1080p] (Хороший звук DUB, MVO) [ 10.48 GB ] Проклятый лес / Ведьмы в лесу / Witches in the Woods [2019 BDRip 1080p] MVO bober100 Скачать
    1 | 0

    28-11-2019 20:33  

    Отключить всю рекламу на сайте

    27-11-2015 05:49 Лес Скачать торрент  

    Первый нах. Поглядим. спасибо.piratbit.org



      Дорогой пользователь! Огромная просьба, поблагодарите релизера, оцените раздачу и оставьте свои комментарий, если Вы скачали Лес через торрент бесплатно!
      Комментировать посты могут только пользователи прошедшие не сложную регистрацию
      Показать сообщения:    

      Лес через торрент
      Скачать бесплатно Лес
      Лес скачать торрент
      Лес смотреть онлайн
      Cкачать фильм Лес бесплатно
      Лес скачать торрент в хорошем качестве
      Лес смотреть онлайн бесплатно в хорошем качестве


      Вы не можете начинать темы
      Вы не можете отвечать на сообщения
      Вы не можете редактировать свои сообщения
      Вы не можете удалять свои сообщения
      Вы не можете голосовать в опросах
      Вы не можете прикреплять файлы к сообщениям
      Вы можете скачивать файлы