Присоединяйтесь к нам в Telegram!, здесь всегда актуальный адрес сайта, оперативная поддержка и многое другое!!

>

5.9

iTunes

7.4

iTunes

9.4

1 сезон

1

7.4

2 сезон

7.2

iTunes

7.3

iTunes

13

6.1

iTunes

8.3

Пиратка

30

ULTIMATE

pack

9.9

Лицензия

ВАЖНО

ИГРА 18+

pack

7.3

RePack

MK11

7.7

RePack

jed

7.8

RePack

fifa19

8.5

RePack

RDR2

RePack

NEED FOR SPEED™ PAYBACK

5 сезон

9 сезон

Бесстыжие 9 сезон

Все сериалы

все сериалы на PB.wtf

RePack

FAR CRY 5

Anonymous, добрый вечер, мы катастрофически не успеваем собрать деньги на оплату серверов, помогите нам пожалуйста 5,10,15р., для нас важна любая помощь . В качестве благодарности мы отключим Вам всю рекламу на сайте (укажите свой ник в строку Ваше имя)!

×
  
Magnet ссылка

Восхождение Крэйсов / The Rise of the Krays (Закари Адлер) [2015, криминал, HDRip, Любительский (двухголосый)[Sunshine Studio] piratbit.org

Восхождение Крэйсов через торрент piratbit.org

Размер: 1.44 GB | Добавлен: 6 лет назад | Торрент скачан:121 раз
Смотреть онлайн Восхождение Крэйсов | Скачать    Ребята, помогите собрать деньги на оплату серверов!!!

27-11-2015 23:06 Восхождение Крэйсов Скачать торрент  


Восхождение Крэйсов / The Rise of the Krays


ИНФОРМАЦИЯ:
Год выпуска:2015
Страна: Великобритания
Жанр: криминал
Продолжительность: 01:50:45
Перевод: Любительский (двухголосый)[Sunshine Studio]
Режиссер: Закари Адлер

В Ролях:


Николя Степлтон (Violet Kray), Кевин Лесли (Reggie Kray), Саймон Коттон (Ronnie Kray), Мариола Яворска (Pub Customer), Марк Престон (Gangster in Pub), Алекса Булл (Lisa Prescott), Пол Блэкуэлл (Photographer), Алекс Маркс (Stefan), Филип Ховард (Bob at the boozer), Дэнни Мидуинтер (Leonard), Philip Prajoux (Sergio), Георг Николофф (Vittor)

Описание:
Взгляд близкого друга на историю братьев-близнецов, выросших в неизвестной спецшколе и ставших самыми опасными людьми в Британии.

  • Мировая премьера:16 мая 2015

    ТЕХ.ДАННЫЕ:
    Качество: HDRip
    Формат: AVI
    Видео: XviD, 720x384 (1.875), 1651 kbps, 25 fps, 0,239 bpp
    Аудио: AC3 / 2.0 / 48 kHz / 128 kbps / 16 bit


    General
    Complete name : D:\Торенты\V0sH0jDen1e.Kra1s0v.2015.L2.HDRip.avi
    Format : AVI
    Format/Info : Audio Video Interleave
    File size : 1.44 GiB
    Duration : 1h 50mn
    Overall bit rate : 1 862 Kbps
    Writing application : VirtualDubMod 1.5.10.3 | www.virtualdub-fr.org || (build 2550/release)
    Writing library : VirtualDubMod build 2550/release

    Video
    ID : 0
    Format : MPEG-4 Visual
    Format profile : Advanced Simple@L5
    Format settings, BVOP : 2
    Format settings, QPel : No
    Format settings, GMC : No warppoints
    Format settings, Matrix : Default (MPEG)
    Codec ID : XVID
    Codec ID/Hint : XviD
    Duration : 1h 50mn
    Bit rate : 1 652 Kbps
    Width : 720 pixels
    Height : 384 pixels
    Display aspect ratio : 1.875
    Frame rate : 25.000 fps
    Color space : YUV
    Chroma subsampling : 4:2:0
    Bit depth : 8 bits
    Scan type : Progressive
    Compression mode : Lossy
    Bits/(Pixel*Frame) : 0.239
    Stream size : 1.28 GiB (89%)
    Writing library : XviD 1.2.1 (UTC 2008-12-04)

    Audio
    ID : 1
    Format : AC-3
    Format/Info : Audio Coding 3
    Mode extension : CM (complete main)
    Codec ID : 2000
    Duration : 1h 50mn
    Bit rate mode : Constant
    Bit rate : 128 Kbps
    Channel(s) : 2 channels
    Channel positions : Front: L R
    Sampling rate : 48.0 KHz
    Bit depth : 16 bits
    Compression mode : Lossy
    Stream size : 101 MiB (7%)
    Alignment : Split accross interleaves
    Скриншоты:

    © Оформление by .::Ворон::.
    piratbit.org



  • Скачать Восхождение Крэйсов через торрент https://pic1.kartinco.top/images/61/ordi9.jpg Скачать, смотреть онлайн Восхождение Крэйсов бесплантно в хорошем качестве Описание: Взгляд близкого друга на историю братьев-близнецов, выросших в неизвестной спецшколе и ставших самыми опасными людьми в Британии. ... 10 10 5
    Торрент: Зарегистрирован [2015-11-27 23:06] · скачан: 121 раз
    Статус: T временная
    Размер: 1.44 GB
    Как cкачать? Как скачать Восхождение Крэйсов через торрент | UTorrent

    % Раздел Тема Автор DL S | L
    T Фильмы 2015 (Звук TS, Cam, VO, DVO) [ 1.46 GB ] Восхождение Крэйсов / The Rise of the Krays [2015 BDRip Любительский [Sunshine Studio] Twi7ter Скачать
    1 | 0
    Фильмы без перевода [ 1.45 GB ] Восхождение Крэйсов / The Rise of the Krays [2015 BDRip Отсутствует перевод] Ворон Скачать
    1 | 0

    28-11-2019 20:33  

    Отключить всю рекламу на сайте

    27-11-2015 23:54 Восхождение Крэйсов Скачать торрент  

    Это вторая часть , ВОСХОЖДЕНИЯ юПИТЕР?piratbit.org



    28-11-2015 00:48 Восхождение Крэйсов Скачать торрент  

    «Легенда» с Харди, только без Харди)))piratbit.org



    28-11-2015 08:18 Восхождение Крэйсов Скачать торрент  

    скачан 33 раза и не кто не пишет как фильм? стоит время тратить?piratbit.org



      Дорогой пользователь! Огромная просьба, поблагодарите релизера, оцените раздачу и оставьте свои комментарий, если Вы скачали Восхождение Крэйсов через торрент бесплатно!
      Комментировать посты могут только пользователи прошедшие не сложную регистрацию
      Показать сообщения:    

      Восхождение Крэйсов через торрент
      Скачать бесплатно Восхождение Крэйсов
      Восхождение Крэйсов скачать торрент
      Восхождение Крэйсов смотреть онлайн
      Cкачать фильм Восхождение Крэйсов бесплатно
      Восхождение Крэйсов скачать торрент в хорошем качестве
      Восхождение Крэйсов смотреть онлайн бесплатно в хорошем качестве


      Вы не можете начинать темы
      Вы не можете отвечать на сообщения
      Вы не можете редактировать свои сообщения
      Вы не можете удалять свои сообщения
      Вы не можете голосовать в опросах
      Вы не можете прикреплять файлы к сообщениям
      Вы можете скачивать файлы