Присоединяйтесь к нам в Telegram!, здесь всегда актуальный адрес сайта, оперативная поддержка и многое другое!!

>

5.9

iTunes

7.4

iTunes

9.4

1 сезон

1

7.4

2 сезон

7.2

iTunes

7.3

1 сезон

13

6.1

iTunes

8.3

Пиратка

30

ULTIMATE

pack

9.9

Лицензия

ВАЖНО

ИГРА 18+

pack

7.3

RePack

MK11

7.7

RePack

jed

7.8

RePack

fifa19

8.5

RePack

RDR2

RePack

NEED FOR SPEED™ PAYBACK

5 сезон

9 сезон

Бесстыжие 9 сезон

Все сериалы

все сериалы на PB.wtf

RePack

FAR CRY 5

Anonymous, добрый вечер, мы катастрофически не успеваем собрать деньги на оплату серверов, помогите нам пожалуйста 5,10,15р., для нас важна любая помощь . В качестве благодарности мы отключим Вам всю рекламу на сайте (укажите свой ник в строку Ваше имя)!

×
  
Magnet ссылка

Отвлекающий маневр / Red Herring (Ousa Khun) [2015, триллер, драма, криминал, HDRip, Любительский (двухголосый) [Parovoz Production] piratbit.org

Отвлекающий маневр через торрент piratbit.org

Размер: 1.35 GB | Добавлен: 6 лет назад | Торрент скачан:136 раз
Смотреть онлайн Отвлекающий маневр | Скачать    Ребята, помогите собрать деньги на оплату серверов!!!

30-11-2015 16:45 Отвлекающий маневр Скачать торрент  


Отвлекающий маневр / Red Herring
««Who is the Blue Screen?»»

ИНФОРМАЦИЯ:
Год выпуска:2015
Страна: США
Жанр: триллер, драма, криминал, детектив
Продолжительность: 01:30:22
Перевод: Любительский (двухголосый) [Parovoz Production]
Режиссер: Ousa Khun

В Ролях:


Холли Вэлэнс (Angela), Коринна Харни (Blonde Woman), Винсент Пасторе (Saffiote), Стефани МакИнтош (Charlie), Ланетт Фюджит (Jennifer), Рич Хопкинс (Russian Gang Leader), Оскар Гудман (Mayor Oscar Goodman), Бобби Биллар (Kim's Girlfriend), Эдуард Осипов (Kyusovich), Сабрина Флореср (Quarrie's Daughter), Бренда Уайтхед (Casino Guest), Камме Тила (Red Herring Patron)

Описание:
Детектив расследует, что его лучший друг - наемный убийца, который находится под властью Элиты Лас-Вегаса.

  • Мировая премьера:30 октября 2015

    ТЕХ.ДАННЫЕ:
    Качество: HDRip
    Формат: AVI
    Видео: XviD, 720x352 (2.045), 1852 kbps, 23,976 fps, 0,305 bpp
    Аудио: AC3 / 2.0 / 48 kHz / 192 kbps / 16 bit


    General
    Complete name : D:\Торенты\0tVleKaUs4iy.MaNeVr.2015.L2.WEB-DLRip.1400MB.avi
    Format : AVI
    Format/Info : Audio Video Interleave
    File size : 1.35 GiB
    Duration : 1h 30mn
    Overall bit rate : 2 138 Kbps

    Video
    ID : 0
    Format : MPEG-4 Visual
    Format profile : Advanced Simple@L5
    Format settings, BVOP : 2
    Format settings, QPel : No
    Format settings, GMC : No warppoints
    Format settings, Matrix : Default (MPEG)
    Codec ID : XVID
    Codec ID/Hint : XviD
    Duration : 1h 30mn
    Bit rate : 1 852 Kbps
    Width : 720 pixels
    Height : 352 pixels
    Display aspect ratio : 2.045
    Frame rate : 23.976 fps
    Color space : YUV
    Chroma subsampling : 4:2:0
    Bit depth : 8 bits
    Scan type : Progressive
    Compression mode : Lossy
    Bits/(Pixel*Frame) : 0.305
    Stream size : 1.17 GiB (87%)
    Writing library : XviD 1.2.1 (UTC 2008-12-04)

    Audio
    ID : 1
    Format : AC-3
    Format/Info : Audio Coding 3
    Mode extension : CM (complete main)
    Codec ID : 2000
    Duration : 1h 30mn
    Bit rate mode : Constant
    Bit rate : 192 Kbps
    Channel(s) : 2 channels
    Channel positions : Front: L R
    Sampling rate : 48.0 KHz
    Bit depth : 16 bits
    Compression mode : Lossy
    Stream size : 124 MiB (9%)
    Alignment : Split accross interleaves
    Скриншоты:

    © Оформление by .::Ворон::.
    piratbit.org



  • Скачать Отвлекающий маневр через торрент https://pic1.kartinco.top/images/61/ordi9.jpg Скачать, смотреть онлайн Отвлекающий маневр бесплантно в хорошем качестве Описание: Детектив расследует, что его лучший друг - наемный убийца, который находится под властью Элиты Лас-Вегаса. Мировая премьера:30 ... 8.9 10 8
    Торрент: Зарегистрирован [2015-11-30 16:45] · скачан: 136 раз
    Статус: T временная
    Размер: 1.35 GB
    Как cкачать? Как скачать Отвлекающий маневр через торрент | UTorrent

    28-11-2019 20:33  

    Отключить всю рекламу на сайте

    30-11-2015 16:53 Отвлекающий маневр Скачать торрент  

    Кто смотрел как фильмец?piratbit.org



      Дорогой пользователь! Огромная просьба, поблагодарите релизера, оцените раздачу и оставьте свои комментарий, если Вы скачали Отвлекающий маневр через торрент бесплатно!
      Комментировать посты могут только пользователи прошедшие не сложную регистрацию
      Показать сообщения:    

      Отвлекающий маневр через торрент
      Скачать бесплатно Отвлекающий маневр
      Отвлекающий маневр скачать торрент
      Отвлекающий маневр смотреть онлайн
      Cкачать фильм Отвлекающий маневр бесплатно
      Отвлекающий маневр скачать торрент в хорошем качестве
      Отвлекающий маневр смотреть онлайн бесплатно в хорошем качестве


      Вы не можете начинать темы
      Вы не можете отвечать на сообщения
      Вы не можете редактировать свои сообщения
      Вы не можете удалять свои сообщения
      Вы не можете голосовать в опросах
      Вы не можете прикреплять файлы к сообщениям
      Вы можете скачивать файлы