новый адрес пиратбит piratbit
Мега распродажа FORZA HORIZON 4 ULTIMATE+ВСЕ DLC+ОНЛАЙН всего за 499р. 349 руб. (супер цена). Внимание количество ограничено!!!

iTunes

1+1

iTunes

мы

iTunes

1

iTunes

Чернобыль

iTunes

Ральф против интернета

Лицензия

ПШазам

Лицензия

Игра престолов

Лицензия

30
pack

ВАЖНО

!!Акция!!

Alien_RageХит недели

RePack

Resident Evil 21

ИГРА 18+

pack

RePack

Metro:Exodus

!!Акция!!

Alien_Rage

RePack

fifa19

RePack

Assassins Creed: Odyssey

RePack

NEED FOR SPEED™ PAYBACK

3 сезон

9 сезон

Бесстыжие 9 сезон

Все сериалы

все сериалы на PB.wtf

RePack

FAR CRY 5
Ребята, катастрофически не хватает 1900р. для оплаты серверов за Октябрь (всвязи с блокировками трафик упал в 3 раза), 1-2р., выручайте.
  

ИСПАНИЯ - берега мечты в 3D в 3Д / 3D (Lllexxx) [2015, документальный, HDTV-AVC] Half SideBySide / Горизонтальная анаморфная стереопара piratbit.org

ИСПАНИЯ - берега мечты в 3D в 3Д через торрент piratbit.org

Размер: 7.55 GB | Добавлен: 3 года 11 мес. назад | Торрент скачан:90 раз
Скачать  

30-11-2015 19:19 ИСПАНИЯ - берега мечты в 3D в 3Д Скачать торрент  

ИСПАНИЯ - берега мечты в 3D Год выпуска: 2015
Страна: Россия
Студия: А - студия
Жанр: документальный
Продолжительность: 00:40:00
Русские субтитры: нет

Режиссер на русском: Lllexxx

Описание: Продолжение морского тура теперь уже по территории Испании. Мы посетим испанский фешенебельный курорт Сан - Себастьян, прогуляемся по тем самым улицам, где в июле каждого года проходит забег быков в Памплоне, осмотрим центральную площадь Сарагосы и конечно же побываем в столице Каталонии - Барселоне с её неподражаемой архитектурой. Курорт Плайа-де-Аро с его очаровательными пейзажами и чистейшим морем ни кого не оставит равнодушным. Кроме того, в этом фильме показаны великолепные шоу: Фламенко, Рыцарский турнир и красочный поющий фонтан.

Качество: HDrip
Контейнер: TS
Формат 3D: Half SideBySide / Горизонтальная анаморфная стереопара
Порядок ракурсов: левый ракурс первый
Видео кодек: h.264
Аудио кодек: AC3
Видео: H.264/AVC, 25 Мбит/сек, 1920х1080, 16:9, 25 кадров/сек. (PAL)
Аудио: Dolby Digital, 16 бит, 6 каналов, 48 кГц, 448 Кбит/сек
Общее
Идентификатор : 1 (0x1)
Полное имя : F:\Видео\Домашнее видео\Видео в 3D\Европа-2015\Испания - берега мечты 3D.mts
Формат : BDAV
Формат/Информация : Blu-ray Video
Размер файла : 7,55 Гбайт
Продолжительность : 40 м.
Режим общего битрейта : Переменный
Общий поток : 26,5 Мбит/сек
Максимальный общий битрейт : 31,4 Мбит/сек
Видео
Идентификатор : 4113 (0x1011)
Идентификатор меню : 1 (0x1)
Формат : AVC
Формат/Информация : Advanced Video Codec
Профиль формата : High@L4.1
Параметр CABAC формата : Да
Параметр ReFrames формата : 2 кадра
Параметр GOP формата : M=2, N=15
Идентификатор кодека : 27
Продолжительность : 40 м.
Вид битрейта : Переменный
Битрейт : 25,0 Мбит/сек
Максимальный битрейт : 26,2 Мбит/сек
Ширина : 1920 пикселей
Высота : 1080 пикселей
Соотношение сторон : 16:9
Частота кадров : 25,000 кадров/сек
Цветовое пространство : YUV
Субдискретизация насыщенности : 4:2:0
Битовая глубина : 8 бит
Тип развёртки : Чересстрочная
Порядок развёртки : Верхнее поле первое
Бит/(Пиксели*Кадры) : 0.483
Размер потока : 7,12 Гбайт (94%)
Аудио
Идентификатор : 4352 (0x1100)
Идентификатор меню : 1 (0x1)
Формат : AC-3
Формат/Информация : Audio Coding 3
Расширение режима : CM (complete main)
Параметр Endianness формата : Big
Идентификатор кодека : 129
Продолжительность : 40 м.
Вид битрейта : Постоянный
Битрейт : 448 Кбит/сек
Каналы : 6 каналов
Расположение каналов : Front: L C R, Side: L R, LFE
Частота : 48,0 КГц
Метод сжатия : С потерями
Размер потока : 131 Мбайт (2%)
piratbit.org



Скачать ИСПАНИЯ - берега мечты в 3D в 3Д через торрент http://i65.fastpic.ru/big/2015/1109/c3/a6582b02535766a542a5ab8d26bdb8c3.jpg Скачать фильм ИСПАНИЯ - берега мечты в 3D в 3Д через торрент бесплантно в хорошем качестве Описание: Продолжение морского тура теперь уже по территории Испании. Мы посетим испанский фешенебельный курорт Сан - Себастьян, ... 10 10 2
Торрент: Зарегистрирован [2015-11-30 19:19] · скачан: 90 раз
Статус: √ проверено
Размер: 7.55 GB
Как cкачать? Как скачать ИСПАНИЯ - берега мечты в 3D в 3Д через торрент | qTorrent


>> Регистрируемся здесь <<






Отзывы и комментарии о схеме читаем и пишем здесь: ---> Отзывы и комментарии о схеме

Новые благодарочки в телеграм довольных пользователей:
скриншот   скриншот   скриншот   скриншот   скриншот
    Дорогой пользователь! Огромная просьба, поблагодарите релизера, оцените раздачу и оставьте свои комментарий, если Вы скачали ИСПАНИЯ - берега мечты в 3D в 3Д через торрент бесплатно! Внесите свою лепту в развитие PiratBit!
    Комментировать посты могут только пользователи прошедшие не сложную регистрацию
    Показать сообщения:    

    ИСПАНИЯ - берега мечты в 3D в 3Д через торрент
    Скачать бесплатно ИСПАНИЯ - берега мечты в 3D в 3Д
    ИСПАНИЯ - берега мечты в 3D в 3Д скачать торрент
    ИСПАНИЯ - берега мечты в 3D в 3Д смотреть онлайн
    Cкачать фильм ИСПАНИЯ - берега мечты в 3D в 3Д бесплатно
    ИСПАНИЯ - берега мечты в 3D в 3Д скачать торрент в хорошем качестве
    ИСПАНИЯ - берега мечты в 3D в 3Д смотреть онлайн бесплатно в хорошем качестве


    Вы не можете начинать темы
    Вы не можете отвечать на сообщения
    Вы не можете редактировать свои сообщения
    Вы не можете удалять свои сообщения
    Вы не можете голосовать в опросах
    Вы не можете прикреплять файлы к сообщениям
    Вы можете скачивать файлы