Ссылка на приватное зеркало всего за 1$. Внимание количество ограничено!!!

iTunes

iTunes

iTunes

1

iTunes

iTunes

iTunes

iTunes

iTunes

30
pack

Новость дня

ВАЖНО

!!Акция!!

Alien_RageХит недели

RePack

Resident Evil 21

ИГРА 18+

pack

RePack

jed

!!Акция!!

Alien_Rage

RePack

fifa19

RePack

Assassins Creed: Odyssey

RePack

NEED FOR SPEED™ PAYBACK

4 сезон

9 сезон

Бесстыжие 9 сезон

Все сериалы

все сериалы на PB.wtf

RePack

FAR CRY 5
  

ФРАНЦИЯ - тур морской волны в 3Д / 3D (Lllexxx) [2015, Документальный, HDTV-AVC] Half SideBySide / Горизонтальная анаморфная стереопара piratbit.org

ФРАНЦИЯ - тур морской волны в 3Д через торрент piratbit.org

Размер: 6.31 GB | Добавлен: 4 года 5 мес. назад | Торрент скачан:83 раза
Скачать  

01-12-2015 04:17 ФРАНЦИЯ - тур морской волны в 3Д Скачать торрент  

ФРАНЦИЯ - тур морской волны в 3D Год выпуска: 2015
Страна: Россия
Студия: А - студия
Жанр: Документальный
Продолжительность: 00:34:00
Перевод: Не требуется
Русские субтитры: нет

Режиссер на русском: Lllexxx

Описание: Это фильм-путешествие от Лазурного до Серебряного побережья Франции. Мы осмотрим Ниццу, Марсель, Экс-ан-Прованс, заглянем за стены неприступной крепости Каркассон, побываем на родине знаменитого Д'Артаньяна, испытаем стихию Атлантического океана в фешенебельном курорте Биарриц и прогуляемся по курортному городку Сен-Жан-де-Люз.

Качество: HDrip
Контейнер: TS
Формат 3D: Half SideBySide / Горизонтальная анаморфная стереопара
Порядок ракурсов: левый ракурс первый
Видео кодек: h.264
Аудио кодек: AC3
Видео: H.264/AVC, 24,9 Мбит/сек, 1920х1080, 16:9, 25 кадров/сек. (PAL)
Аудио: Dolby Digital, 16 бит, 6 каналов, 48 кГц, 448 Кбит/сек
Формат : BDAV
Формат/Информация : Blu-ray Video
Размер файла : 6,31 Гбайт
Продолжительность : 34 м.
Режим общего битрейта : Переменный
Общий поток : 26,4 Мбит/сек
Максимальный общий битрейт : 31,4 Мбит/сек
Видео
Идентификатор : 4113 (0x1011)
Идентификатор меню : 1 (0x1)
Формат : AVC
Формат/Информация : Advanced Video Codec
Профиль формата : High@L4.1
Параметр CABAC формата : Да
Параметр ReFrames формата : 2 кадра
Идентификатор кодека : 27
Продолжительность : 34 м.
Вид битрейта : Переменный
Битрейт : 24,9 Мбит/сек
Максимальный битрейт : 26,2 Мбит/сек
Ширина : 1920 пикселей
Высота : 1080 пикселей
Соотношение сторон : 16:9
Частота кадров : 25,000 кадров/сек
Цветовое пространство : YUV
Субдискретизация насыщенности : 4:2:0
Битовая глубина : 8 бит
Тип развёртки : Чересстрочная
Порядок развёртки : Верхнее поле первое
Бит/(Пиксели*Кадры) : 0.481
Размер потока : 5,95 Гбайт (94%)
Аудио
Идентификатор : 4352 (0x1100)
Идентификатор меню : 1 (0x1)
Формат : AC-3
Формат/Информация : Audio Coding 3
Расширение режима : CM (complete main)
Параметр Endianness формата : Big
Идентификатор кодека : 129
Продолжительность : 34 м.
Вид битрейта : Постоянный
Битрейт : 448 Кбит/сек
Каналы : 6 каналов
Расположение каналов : Front: L C R, Side: L R, LFE
Частота : 48,0 КГц
Метод сжатия : С потерями
Размер потока : 109 Мбайт (2%)
piratbit.org



Скачать ФРАНЦИЯ - тур морской волны в 3Д через торрент http://i66.fastpic.ru/big/2015/1104/a0/0c3a30edabf9799ef441b2ee9d83cca0.jpg Скачать фильм ФРАНЦИЯ - тур морской волны в 3Д через торрент бесплантно в хорошем качестве Описание: Это фильм-путешествие от Лазурного до Серебряного побережья Франции. Мы осмотрим Ниццу, Марсель, Экс-ан-Прованс, заглянем за ... 10 10 1
Торрент: Зарегистрирован [2015-12-01 04:17] · скачан: 83 раз
Статус: √ проверено
Размер: 6.31 GB
Как cкачать? Как скачать ФРАНЦИЯ - тур морской волны в 3Д через торрент | qTorrent

28-11-2019 20:33  

Отключить всю рекламу на сайте

    Дорогой пользователь! Огромная просьба, поблагодарите релизера, оцените раздачу и оставьте свои комментарий, если Вы скачали ФРАНЦИЯ - тур морской волны в 3Д через торрент бесплатно! Внесите свою лепту в развитие PiratBit!
    Комментировать посты могут только пользователи прошедшие не сложную регистрацию
    Показать сообщения:    

    ФРАНЦИЯ - тур морской волны в 3Д через торрент
    Скачать бесплатно ФРАНЦИЯ - тур морской волны в 3Д
    ФРАНЦИЯ - тур морской волны в 3Д скачать торрент
    ФРАНЦИЯ - тур морской волны в 3Д смотреть онлайн
    Cкачать фильм ФРАНЦИЯ - тур морской волны в 3Д бесплатно
    ФРАНЦИЯ - тур морской волны в 3Д скачать торрент в хорошем качестве
    ФРАНЦИЯ - тур морской волны в 3Д смотреть онлайн бесплатно в хорошем качестве


    Вы не можете начинать темы
    Вы не можете отвечать на сообщения
    Вы не можете редактировать свои сообщения
    Вы не можете удалять свои сообщения
    Вы не можете голосовать в опросах
    Вы не можете прикреплять файлы к сообщениям
    Вы можете скачивать файлы