новый адрес
Мега распродажа FORZA HORIZON 4 ULTIMATE+ВСЕ DLC+ОНЛАЙН всего за 499р. 349 руб. (супер цена). Внимание количество ограничено!!!

iTunes

1+1

iTunes

мы

iTunes

1

iTunes

Чернобыль

iTunes

Ральф против интернета

Лицензия

ПШазам

Лицензия

Оно 2

Лицензия

30
pack

ВАЖНО

!!Акция!!

Alien_RageХит недели

RePack

Resident Evil 21

ИГРА 18+

pack

RePack

Metro:Exodus

!!Акция!!

Alien_Rage

RePack

fifa19

RePack

Assassins Creed: Odyssey

RePack

NEED FOR SPEED™ PAYBACK

3 сезон

9 сезон

Бесстыжие 9 сезон

Все сериалы

все сериалы на PB.wtf

RePack

FAR CRY 5
Ребята, катастрофически не хватает 1900р. для оплаты серверов за Октябрь (всвязи с блокировками трафик упал в 3 раза), 1-2р., выручайте.
  

Остров лемуров: Мадагаскар в 3Д / Island of Lemurs: Madagascar 3D (Дэвид Дуглас / David Douglas) [2014, Документальный, Семейный, BDrip-AVC] [IMAX] Half OverUnder / Вертикальная анаморфная стереопара piratbit.org

Остров лемуров: Мадагаскар в 3Д через торрент piratbit.org

Размер: 6.04 GB | Добавлен: 3 года 11 мес. назад | Торрент скачан:58 раз
Скачать  

01-12-2015 06:01 Остров лемуров: Мадагаскар в 3Д Скачать торрент  



Остров лемуров: Мадагаскар
Island of Lemurs: Madagascar
Год выпуска: 2014
Страна: Канада, США, Мадагаскар (IMAX, Warner Bros. Pictures)
Жанр: Документальный, Семейный
Продолжительность: 00:40:39
Перевод: Професиональный двухголосый и Любительский одноголосый закадровые (перевод любительский - Ash61)

Режиссер: Дэвид Дуглас / David Douglas
В фильме снимались: Морган Фриман (рассказчик), Patricia Wright, Hantanirina Rasamimanana
Описание: Лемуры оказались на острове миллионы лет назад и постепенно эволюционировали в сотни различных видов. Сегодня эти уникальные животные оказались под угрозой исчезновения. Последуйте примеру ученого-новатора Патрисии Райт, которая всю жизнь оказывает помощь лемурам, сохраняя это чудо природы в современном мире.
За озвучку Омикрона спасибо
Обе озвучки сделаны по одному переводу.
Премьера: 4 апреля 2014 (24 августа 2014) . .
Качество: BDRip (by Ash61)
Контейнер: MKV
Формат 3D: Half OverUnder / Вертикальная анаморфная стереопара
Порядок ракурсов: левый ракурс первый
Видео: AVC / 23,976 fps / 1920х1080p / 18.9 Mbps
Аудио:
#1 - Русский / AC3 / 48 KHz / 5.1 ch / 640 Kbps (DVO - студия Омикрон)
#2 - Русский / AC3 / 48 KHz / 5.1 ch / 640 Kbps (VO - Sawgod) (сведЕние - Ash61)
#3 - Английский / AC3 / 48 KHz / 5.1 ch / 640 Kbps (Original - BD 3D)

Субтитры внешние SRT UTF-8:
#1 - Русские Полные (перевод любительский - Ash61)
#2 - English Full
#3 - English SDH
General
Unique ID : 184980610505726170474819396255488761894 (0x8B29F83DA14F99A1994EA29816196026)
Complete name : E:\IslandOfLemurs.Madagascar(2014)3D-halfOU(Ash61)DVO+VO\IslandOfLemurs.Madagascar(2014)3D-halfOU(Ash61)DVO+VO.mkv
Format : Matroska
Format version : Version 2
File size : 6.04 GiB
Duration : 40mn 39s
Overall bit rate : 21.3 Mbps
Movie name : Остров лемуров: Мадагаскар / Island of Lemurs: Madagascar (2014) 3D
Encoded date : UTC 2015-09-05 14:34:53
Writing application : mkvmerge v5.8.0 ('No Sleep / Pillow') built on Sep 2 2012 15:37:04
Writing library : libebml v1.2.3 + libmatroska v1.3.0

Video
ID : 1
Format : AVC
Format/Info : Advanced Video Codec
Format profile : High@L4.1
Format settings, CABAC : Yes
Format settings, ReFrames : 4 frames
Codec ID : V_MPEG4/ISO/AVC
Duration : 40mn 39s
Bit rate : 18.9 Mbps
Width : 1 920 pixels
Height : 1 080 pixels
Display aspect ratio : 16:9
Frame rate mode : Constant
Frame rate : 23.976 fps
Color space : YUV
Chroma subsampling : 4:2:0
Bit depth : 8 bits
Scan type : Progressive
Bits/(Pixel*Frame) : 0.381
Stream size : 5.38 GiB (89%)
Title : BDRip by Ash61
Writing library : x264 core 138 r2358 9e941d1
Encoding settings : cabac=1 / ref=4 / deblock=1:-3:-3 / analyse=0x3:0x113 / me=umh / subme=10 / psy=1 / psy_rd=1.00:0.00 / mixed_ref=1 / me_range=32 / chroma_me=1 / trellis=2 / 8x8dct=1 / cqm=0 / deadzone=21,11 / fast_pskip=1 / chroma_qp_offset=-2 / threads=12 / lookahead_threads=3 / sliced_threads=0 / nr=0 / decimate=1 / interlaced=0 / bluray_compat=0 / constrained_intra=0 / bframes=10 / b_pyramid=2 / b_adapt=2 / b_bias=0 / direct=3 / weightb=1 / open_gop=0 / weightp=2 / keyint=250 / keyint_min=23 / scenecut=40 / intra_refresh=0 / rc_lookahead=60 / rc=crf / mbtree=1 / crf=17.0 / qcomp=0.70 / qpmin=10 / qpmax=69 / qpstep=4 / vbv_maxrate=40000 / vbv_bufsize=30000 / crf_max=0.0 / nal_hrd=none / frame-packing=4 / ip_ratio=1.40 / aq=1:0.70
Language : English
Default : Yes
Forced : No

Audio #1
ID : 2
Format : AC-3
Format/Info : Audio Coding 3
Mode extension : CM (complete main)
Format settings, Endianness : Big
Codec ID : A_AC3
Duration : 40mn 39s
Bit rate mode : Constant
Bit rate : 640 Kbps
Channel(s) : 6 channels
Channel positions : Front: L C R, Side: L R, LFE
Sampling rate : 48.0 KHz
Bit depth : 16 bits
Compression mode : Lossy
Stream size : 186 MiB (3%)
Title : Двухголосый закадровый - студия Омикрон (перевод любительский - Ash61)
Language : Russian
Default : Yes
Forced : No

Audio #2
ID : 3
Format : AC-3
Format/Info : Audio Coding 3
Mode extension : CM (complete main)
Format settings, Endianness : Big
Codec ID : A_AC3
Duration : 40mn 39s
Bit rate mode : Constant
Bit rate : 640 Kbps
Channel(s) : 6 channels
Channel positions : Front: L C R, Side: L R, LFE
Sampling rate : 48.0 KHz
Bit depth : 16 bits
Compression mode : Lossy
Stream size : 186 MiB (3%)
Title : Одноголосый любительский закадровый - Sawgod (перевод любительский - Ash61)
Language : Russian
Default : No
Forced : No

Audio #3
ID : 4
Format : AC-3
Format/Info : Audio Coding 3
Mode extension : CM (complete main)
Format settings, Endianness : Big
Codec ID : A_AC3
Duration : 40mn 39s
Bit rate mode : Constant
Bit rate : 640 Kbps
Channel(s) : 6 channels
Channel positions : Front: L C R, Side: L R, LFE
Sampling rate : 48.0 KHz
Bit depth : 16 bits
Compression mode : Lossy
Stream size : 186 MiB (3%)
Title : Original - BD 3D
Language : English
Default : No
Forced : No

Menu
00:00:00.000 : :1
00:07:05.133 : :2
00:12:47.517 : :3
00:21:27.286 : :4
00:29:21.343 : :5
00:36:37.821 : :6
00:39:18.064 : :7
piratbit.org



Скачать Остров лемуров: Мадагаскар в 3Д через торрент http://i60.fastpic.ru/big/2015/0408/96/e9b68bdf205b2ea971ce1d1e5345c696.png Скачать фильм Остров лемуров: Мадагаскар в 3Д через торрент бесплантно в хорошем качестве Описание: Лемуры оказались на острове миллионы лет назад и постепенно эволюционировали в сотни различных видов. Сегодня эти уникальные ... 10 10 2
Торрент: Зарегистрирован [2015-12-01 06:01] · скачан: 58 раз
Статус: √ проверено
Размер: 6.04 GB
Как cкачать? Как скачать Остров лемуров: Мадагаскар в 3Д через торрент | qTorrent


>> Регистрируемся здесь <<






Отзывы и комментарии о схеме читаем и пишем здесь: ---> Отзывы и комментарии о схеме

Новые благодарочки в телеграм довольных пользователей:
скриншот   скриншот   скриншот   скриншот   скриншот
    Дорогой пользователь! Огромная просьба, поблагодарите релизера, оцените раздачу и оставьте свои комментарий, если Вы скачали Остров лемуров: Мадагаскар в 3Д через торрент бесплатно! Внесите свою лепту в развитие PiratBit!
    Комментировать посты могут только пользователи прошедшие не сложную регистрацию
    Показать сообщения:    

    Остров лемуров: Мадагаскар в 3Д через торрент
    Скачать бесплатно Остров лемуров: Мадагаскар в 3Д
    Остров лемуров: Мадагаскар в 3Д скачать торрент
    Остров лемуров: Мадагаскар в 3Д смотреть онлайн
    Cкачать фильм Остров лемуров: Мадагаскар в 3Д бесплатно
    Остров лемуров: Мадагаскар в 3Д скачать торрент в хорошем качестве
    Остров лемуров: Мадагаскар в 3Д смотреть онлайн бесплатно в хорошем качестве


    Вы не можете начинать темы
    Вы не можете отвечать на сообщения
    Вы не можете редактировать свои сообщения
    Вы не можете удалять свои сообщения
    Вы не можете голосовать в опросах
    Вы не можете прикреплять файлы к сообщениям
    Вы можете скачивать файлы