новый адрес
Мега распродажа FORZA HORIZON 4 ULTIMATE+ВСЕ DLC+ОНЛАЙН всего за 499р. 349 руб. (супер цена). Внимание количество ограничено!!!

iTunes

1+1

iTunes

мы

iTunes

1

iTunes

Чернобыль

iTunes

Ральф против интернета

Лицензия

ПШазам

Лицензия

Игра престолов

Лицензия

30
pack

ВАЖНО

!!Акция!!

Alien_RageХит недели

RePack

Resident Evil 21

ИГРА 18+

pack

RePack

Metro:Exodus

!!Акция!!

Alien_Rage

RePack

fifa19

RePack

Assassins Creed: Odyssey

RePack

NEED FOR SPEED™ PAYBACK

3 сезон

9 сезон

Бесстыжие 9 сезон

Все сериалы

все сериалы на PB.wtf

RePack

FAR CRY 5
Ребята, катастрофически не хватает 1900р. для оплаты серверов за Октябрь (всвязи с блокировками трафик упал в 3 раза), 1-2р., выручайте.
  

Вылазка в Прибалтику. Вильнюс и Рига в 3D в 3Д / 3D (Lllexxx) [2015, Документальный, HDTV-AVC] Half SideBySide / Горизонтальная анаморфная стереопара piratbit.org

Вылазка в Прибалтику. Вильнюс и Рига в 3D в 3Д через торрент piratbit.org

Размер: 3.51 GB | Добавлен: 3 года 11 мес. назад | Торрент скачан:34 раза
Скачать  

01-12-2015 06:09 Вылазка в Прибалтику. Вильнюс и Рига в 3D в 3Д Скачать торрент  

Вылазка в Прибалтику. Вильнюс и Рига в 3D Год выпуска: 2015
Страна: Россия
Студия: А-студия
Жанр: Документальный
Продолжительность: 00:21:00
Перевод: Не требуется
Русские субтитры: нет

Режиссер на русском: Lllexxx

Описание:Путешествие на майские праздники в Прибалтику. Мы познакомимся с Вильнюсом и Ригой. Узнаем, что за республика такая Ужупис, заберемся на башню Гедеминаса, полюбуемся на Президентский дворец, где сидит Даля Грибаускайте, прогуляемся по улочкам старых городов Вильнюса и Риги, осмотрим Рижский замок, пороховую башню и здания в стиле модерн Новой Риги.

Качество: HDTV
Контейнер: TS
Формат 3D: Half SideBySide / Горизонтальная анаморфная стереопара
Порядок ракурсов: левый ракурс первый
Видео кодек: h.264
Аудио кодек: AC3
Видео: H.264/AVC, 22,6 Мбит/сек, 1920х1080, 16:9, 25 кадров/сек. (PAL)
Аудио: Dolby Digital, 16 бит, 6 каналов, 48 кГц, 384 Кбит/сек
Субтитры: Отсутствуют
Общее
Идентификатор : 1 (0x1)
Полное имя : F:\Видео\Домашнее видео\Видео в 3D\Вылазка в Прибалтику. Вильнюс и Рига..mts
Формат : BDAV
Формат/Информация : Blu-ray Video
Размер файла : 3,51 Гбайт
Продолжительность : 20 м.
Режим общего битрейта : Переменный
Общий поток : 23,9 Мбит/сек
Максимальный общий битрейт : 28,8 Мбит/сек

Видео
Идентификатор : 4113 (0x1011)
Идентификатор меню : 1 (0x1)
Формат : AVC
Формат/Информация : Advanced Video Codec
Профиль формата : High@L4.1
Параметр CABAC формата : Да
Параметр ReFrames формата : 2 кадра
Параметр GOP формата : M=2, N=15
Идентификатор кодека : 27
Продолжительность : 20 м.
Вид битрейта : Переменный
Битрейт : 22,6 Мбит/сек
Максимальный битрейт : 24,0 Мбит/сек
Ширина : 1920 пикселей
Высота : 1080 пикселей
Соотношение сторон : 16:9
Частота кадров : 25,000 кадров/сек
Цветовое пространство : YUV
Субдискретизация насыщенности : 4:2:0
Битовая глубина : 8 бит
Тип развёртки : Чересстрочная
Порядок развёртки : Верхнее поле первое
Бит/(Пиксели*Кадры) : 0.436
Размер потока : 3,31 Гбайт (94%)

Аудио
Идентификатор : 4352 (0x1100)
Идентификатор меню : 1 (0x1)
Формат : AC-3
Формат/Информация : Audio Coding 3
Расширение режима : CM (complete main)
Параметр Endianness формата : Big
Идентификатор кодека : 129
Продолжительность : 20 м.
Вид битрейта : Постоянный
Битрейт : 384 Кбит/сек
Каналы : 6 каналов
Расположение каналов : Front: L C R, Side: L R, LFE
Частота : 48,0 КГц
Битовая глубина : 16 бит
Метод сжатия : С потерями
Размер потока : 57,6 Мбайт (2%)
piratbit.org



Скачать Вылазка в Прибалтику. Вильнюс и Рига в 3D в 3Д через торрент http://s017.radikal.ru/i429/1506/10/c9ed56450f35.jpg Скачать фильм Вылазка в Прибалтику. Вильнюс и Рига в 3D в 3Д через торрент бесплантно в хорошем качестве Описание:Путешествие на майские праздники в Прибалтику. Мы познакомимся с Вильнюсом и Ригой. Узнаем, что за республика такая Ужупис, ... 10 10 1
Торрент: Зарегистрирован [2015-12-01 06:09] · скачан: 34 раз
Статус: √ проверено
Размер: 3.51 GB
Как cкачать? Как скачать Вылазка в Прибалтику. Вильнюс и Рига в 3D в 3Д через торрент | qTorrent


>> Регистрируемся здесь <<






Отзывы и комментарии о схеме читаем и пишем здесь: ---> Отзывы и комментарии о схеме

Новые благодарочки в телеграм довольных пользователей:
скриншот   скриншот   скриншот   скриншот   скриншот
    Дорогой пользователь! Огромная просьба, поблагодарите релизера, оцените раздачу и оставьте свои комментарий, если Вы скачали Вылазка в Прибалтику. Вильнюс и Рига в 3D в 3Д через торрент бесплатно! Внесите свою лепту в развитие PiratBit!
    Комментировать посты могут только пользователи прошедшие не сложную регистрацию
    Показать сообщения:    

    Вылазка в Прибалтику. Вильнюс и Рига в 3D в 3Д через торрент
    Скачать бесплатно Вылазка в Прибалтику. Вильнюс и Рига в 3D в 3Д
    Вылазка в Прибалтику. Вильнюс и Рига в 3D в 3Д скачать торрент
    Вылазка в Прибалтику. Вильнюс и Рига в 3D в 3Д смотреть онлайн
    Cкачать фильм Вылазка в Прибалтику. Вильнюс и Рига в 3D в 3Д бесплатно
    Вылазка в Прибалтику. Вильнюс и Рига в 3D в 3Д скачать торрент в хорошем качестве
    Вылазка в Прибалтику. Вильнюс и Рига в 3D в 3Д смотреть онлайн бесплатно в хорошем качестве


    Вы не можете начинать темы
    Вы не можете отвечать на сообщения
    Вы не можете редактировать свои сообщения
    Вы не можете удалять свои сообщения
    Вы не можете голосовать в опросах
    Вы не можете прикреплять файлы к сообщениям
    Вы можете скачивать файлы