новый адрес пиратбит piratbit
Мега распродажа FORZA HORIZON 4 ULTIMATE+ВСЕ DLC+ОНЛАЙН всего за 499р. 349 руб. (супер цена). Внимание количество ограничено!!!

iTunes

1+1

iTunes

мы

iTunes

1

iTunes

Чернобыль

iTunes

Ральф против интернета

Лицензия

ПШазам

Лицензия

Игра престолов

Лицензия

30
pack

ВАЖНО

!!Акция!!

Alien_RageХит недели

RePack

Resident Evil 21

ИГРА 18+

pack

RePack

Metro:Exodus

!!Акция!!

Alien_Rage

RePack

fifa19

RePack

Assassins Creed: Odyssey

RePack

NEED FOR SPEED™ PAYBACK

3 сезон

9 сезон

Бесстыжие 9 сезон

Все сериалы

все сериалы на PB.wtf

RePack

FAR CRY 5
Ребята, катастрофически не хватает 1900р. для оплаты серверов за Октябрь (всвязи с блокировками трафик упал в 3 раза), 1-2р., выручайте.
  

Боевые пилоты: Операция «Красный флаг» в 3Д / Fighter Pilot: Operation Red Flag 3D (Стивен Лоу / Stephen Low) [2004, документальный, короткометражный, BDrip-AVC], IMAX, VO, Half SideBySide / Горизонтальная анаморфная стереопара piratbit.org

Боевые пилоты: Операция «Красный флаг» в 3Д через торрент piratbit.org

Размер: 4.67 GB | Добавлен: 3 года 11 мес. назад | Торрент скачан:115 раз
Скачать  

01-12-2015 06:34 Боевые пилоты: Операция «Красный флаг» в 3Д Скачать торрент  

Боевые пилоты: Операция «Красный флаг» / Fighter Pilot: Operation Red Flag
Год выпуска: 2004
Страна: США
Жанр: документальный, короткометражный
Продолжительность: 00:48:28
Перевод: Профессиональный (двухголосый закадровый)
Русские субтитры: нет
Режиссер: Стивен Лоу / Stephen Low

В ролях: Джон Стрэттон, Роберт Новотны, Сэм Морган, Рэнди Кейсон, Мишель Перрон, Чарльз Пауэлл, Харольд Винтер

Описание: «Красный флаг» - это последняя тренировка для пилотов их техников перед тем, как они отправятся в настоящий бой. Мы проследим за тем, как молодой пилот пройдет через это экстраординарное событие в пустыне Невада. Он поражен тем, насколько эти испытания сложны и опасны. Он понимает, то существует команда, которой не было места в его детском представлении о героизме, эта команда является ключом к успеху всего задания и безопасному возвращению домой. В учебных воздушных боях есть и другие пилоты, цель которых не только проверить себя, они помогают ему, прикрывая спину. И он делает то же самое и для них. Он осознает, что быть героем это не так просто, как он себе это представлял. В целом, показана работа всей команды - пилотов, техников, персонала самолета ДРЛО, других родов в ходе комплексных учений «Красный флаг».

Качество: BDrip
Контейнер: MKV
Формат 3D: Half SideBySide / Горизонтальная анаморфная стереопара
Порядок ракурсов: левый ракурс первый
Видео кодек: AVC
Аудио кодек: AC3
Видео: 1920x1080p, 23.976 fps, 12,2 Mbps
Аудио: Русский AC3 5.1, 48 kHz, 640 Kbps — профессиональный (двухголосый закадровый) Омикрон
Аудио 2: Английский AC3 5.1, 48 kHz, 640 Kbps
Субтитры: отсутствуют
Сэмпл: Sample-Fighter-Pilot-Operation-Red-Flag-3D-HalfSBS-2004-1080p-BDRip-Rus-Eng.mkv (116 MB)
Общее
Уникальный идентификатор : 77589285660217732881270750940909020378 (0x3A5F2721F122C0261D6406A6512024DA)
Полное имя : Fighter-Pilot-Operation-Red-Flag-3D-HalfSBS-2004-1080p-BDRip-Rus-Eng.mkv
Формат : Matroska
Версия формата : Version 2
Размер файла : 4,67 Гбайт
Продолжительность : 48 м.
Общий поток : 13,8 Мбит/сек
Программа кодирования : Lavf54.63.104
Библиотека кодирования : Lavf54.63.104

Видео
Идентификатор : 1
Формат : AVC
Формат/Информация : Advanced Video Codec
Профиль формата : High@L4.1
Параметр CABAC формата : Да
Параметр ReFrames формата : 4 кадра
Идентификатор кодека : V_MPEG4/ISO/AVC
Продолжительность : 48 м.
Битрейт : 12,2 Мбит/сек
Ширина : 1920 пикселей
Высота : 1080 пикселей
Соотношение сторон : 16:9
Режим частоты кадров : Постоянный
Частота кадров : 23,976 кадра/сек
Цветовое пространство : YUV
Субдискретизация насыщенности : 4:2:0
Битовая глубина : 8 бит
Тип развёртки : Прогрессивная
Бит/(Пиксели*Кадры) : 0.246
Размер потока : 4,14 Гбайт (89%)
Библиотека кодирования : x264 core 146 r2538 121396c
Настройки программы : cabac=1 / ref=4 / deblock=1:-3:-3 / analyse=0x3:0x133 / me=umh / subme=9 / psy=1 / psy_rd=1.00:0.15 / mixed_ref=1 / me_range=16 / chroma_me=1 / trellis=2 / 8x8dct=1 / cqm=0 / deadzone=21,11 / fast_pskip=0 / chroma_qp_offset=-3 / threads=12 / lookahead_threads=1 / sliced_threads=0 / nr=0 / decimate=1 / interlaced=0 / bluray_compat=0 / constrained_intra=0 / bframes=3 / b_pyramid=2 / b_adapt=2 / b_bias=0 / direct=3 / weightb=1 / open_gop=0 / weightp=2 / keyint=250 / keyint_min=23 / scenecut=40 / intra_refresh=0 / rc_lookahead=60 / rc=crf / mbtree=1 / crf=19.0 / qcomp=0.60 / qpmin=0 / qpmax=69 / qpstep=4 / ip_ratio=1.40 / aq=1:1.00
Default : Да
Forced : Нет
Цветовой диапазон : Limited
Основные цвета : BT.709
Характеристики трансфера : BT.709
Коэффициенты матрицы : BT.709

Аудио #1
Идентификатор : 2
Формат : AC-3
Формат/Информация : Audio Coding 3
Расширение режима : CM (complete main)
Параметр Endianness формата : Big
Идентификатор кодека : A_AC3
Продолжительность : 48 м.
Вид битрейта : Постоянный
Битрейт : 640 Кбит/сек
Каналы : 6 каналов
Расположение каналов : Front: L C R, Side: L R, LFE
Частота : 48,0 КГц
Метод сжатия : С потерями
Задержка видео : 5 мс.
Размер потока : 222 Мбайт (5%)
Язык : Russian
Default : Да
Forced : Нет

Аудио #2
Идентификатор : 3
Формат : AC-3
Формат/Информация : Audio Coding 3
Расширение режима : CM (complete main)
Параметр Endianness формата : Big
Идентификатор кодека : A_AC3
Продолжительность : 48 м.
Вид битрейта : Постоянный
Битрейт : 640 Кбит/сек
Каналы : 6 каналов
Расположение каналов : Front: L C R, Side: L R, LFE
Частота : 48,0 КГц
Метод сжатия : С потерями
Задержка видео : 5 мс.
Размер потока : 222 Мбайт (5%)
Язык : English
Default : Да
Forced : Нет
piratbit.org



Скачать Боевые пилоты: Операция «Красный флаг» в 3Д через торрент http://img-fotki.yandex.ru/get/3109/38488997.1/0_116711_2be24568_orig.png Скачать фильм Боевые пилоты: Операция «Красный флаг» в 3Д через торрент бесплантно в хорошем качестве Описание: «Красный флаг» - это последняя тренировка для пилотов их техников перед тем, как они отправятся в настоящий бой. Мы проследим за ... 10 10 2
Торрент: Зарегистрирован [2015-12-01 06:34] · скачан: 115 раз
Статус: √ проверено
Размер: 4.67 GB
Как cкачать? Как скачать Боевые пилоты: Операция «Красный флаг» в 3Д через торрент | qTorrent


>> Регистрируемся здесь <<






Отзывы и комментарии о схеме читаем и пишем здесь: ---> Отзывы и комментарии о схеме

Новые благодарочки в телеграм довольных пользователей:
скриншот   скриншот   скриншот   скриншот   скриншот
    Дорогой пользователь! Огромная просьба, поблагодарите релизера, оцените раздачу и оставьте свои комментарий, если Вы скачали Боевые пилоты: Операция «Красный флаг» в 3Д через торрент бесплатно! Внесите свою лепту в развитие PiratBit!
    Комментировать посты могут только пользователи прошедшие не сложную регистрацию
    Показать сообщения:    

    Боевые пилоты: Операция «Красный флаг» в 3Д через торрент
    Скачать бесплатно Боевые пилоты: Операция «Красный флаг» в 3Д
    Боевые пилоты: Операция «Красный флаг» в 3Д скачать торрент
    Боевые пилоты: Операция «Красный флаг» в 3Д смотреть онлайн
    Cкачать фильм Боевые пилоты: Операция «Красный флаг» в 3Д бесплатно
    Боевые пилоты: Операция «Красный флаг» в 3Д скачать торрент в хорошем качестве
    Боевые пилоты: Операция «Красный флаг» в 3Д смотреть онлайн бесплатно в хорошем качестве


    Вы не можете начинать темы
    Вы не можете отвечать на сообщения
    Вы не можете редактировать свои сообщения
    Вы не можете удалять свои сообщения
    Вы не можете голосовать в опросах
    Вы не можете прикреплять файлы к сообщениям
    Вы можете скачивать файлы