Ссылка на приватное зеркало всего за 1$. Внимание количество ограничено!!!

iTunes

iTunes

iTunes

1

iTunes

iTunes

iTunes

iTunes

iTunes

30
pack

Новость дня

ВАЖНО

!!Акция!!

Alien_RageХит недели

RePack

Resident Evil 21

ИГРА 18+

pack

RePack

jed

!!Акция!!

Alien_Rage

RePack

fifa19

RePack

Assassins Creed: Odyssey

RePack

NEED FOR SPEED™ PAYBACK

4 сезон

9 сезон

Бесстыжие 9 сезон

Все сериалы

все сериалы на PB.wtf

RePack

FAR CRY 5
  

Итальянский калейдоскоп в 3D / 3Д (Lllexxx) [2015, Документальный, HDTV] Half SideBySide / Горизонтальная анаморфная стереопара piratbit.org

Итальянский калейдоскоп в 3D через торрент piratbit.org

Размер: 12.3 GB | Добавлен: 4 года 5 мес. назад | Торрент скачан:87 раз
Скачать  

01-12-2015 06:49 Итальянский калейдоскоп в 3D Скачать торрент  

Итальянский калейдоскоп в 3D Год выпуска: 2015
Страна: Россия
Студия: А - студия
Жанр: Документальный
Продолжительность: 01:06:39
Перевод: Не требуется
Русские субтитры: нет

Режиссер на русском: Lllexxx

Описание: Продолжение предыдущего фильма-путешествия из цикла "Галопом по Европам". Теперь о путешествии по Италии. Видеоряд снабжен закадровым текстом и фоновой музыкой. Мы проехали всю Италию с севера на юг и увидели: Милан и автоматическое метро в Милане, Верону, Венецию, Флоренцию, Рим и римское метро, узнали почему в Ватикане у знаменитой статуи нету х...., прогулялись по Неаполю и Помпеям. На пароме перебрались на остров Сицилия и осмотрели город-курорт Таормину, вулкан Этну и Палермо.

Качество: HDTV
Контейнер: mpeg2
Формат 3D: Half SideBySide / Горизонтальная анаморфная стереопара
Порядок ракурсов: левый ракурс первый
Видео кодек: Mpeg2
Аудио кодек: AC3
Видео: MPEG-VIDEO 26,4 Мбит/сек, 1920х1080, 16:9, 25 кадров/сек. (PAL)
Аудио: Dolby Digital, 16 бит, 6 каналов, 48 кГц, 448 Кбит/сек
Субтитры: отсутствуют
Общее
Полное имя : F:\Видео\Домашнее видео\Видео в 3D\Итальянский калейдоскоп\Итальянский калейдоскоп 3D.mpg
Формат : MPEG-PS
Размер файла : 12,3 Гбайт
Продолжительность : 1 ч. 6 м.
Режим общего битрейта : Переменный
Общий поток : 26,4 Мбит/сек

Видео
Идентификатор : 224 (0xE0)
Формат : MPEG Video
Версия формата : Version 2
Профиль формата : Main@High
Параметр BVOP формата : Да
Параметр матрицы формата : Выборочная
Параметр GOP формата : M=3, N=12
Структура изображения : Frame
Продолжительность : 1 ч. 6 м.
Вид битрейта : Переменный
Битрейт : 25,4 Мбит/сек
Максимальный битрейт : 28,0 Мбит/сек
Ширина : 1920 пикселей
Высота : 1080 пикселей
Соотношение сторон : 16:9
Частота кадров : 25,000 кадров/сек
Стандарт вещания : Component
Цветовое пространство : YUV
Субдискретизация насыщенности : 4:2:0
Битовая глубина : 8 бит
Тип развёртки : Чересстрочная
Порядок развёртки : Верхнее поле первое
Метод сжатия : С потерями
Бит/(Пиксели*Кадры) : 0.491
Временной код первого кадра : 00:00:00:00
Оригинал временного кода : Group of pictures header
GOP, открыто/закрыто : Открыто
GOP, открыто/закрыто на первом кадре : Закрыто
Размер потока : 11,8 Гбайт (96%)
Основные цвета : BT.709
Характеристики трансфера : BT.709
Коэффициенты матрицы : BT.709

Аудио
Идентификатор : 189 (0xBD)-129 (0x81)
Формат : AC-3
Формат/Информация : Audio Coding 3
Расширение режима : CM (complete main)
Параметр Endianness формата : Big
Режим смешивания : DVD-Video
Продолжительность : 1 ч. 6 м.
Вид битрейта : Постоянный
Битрейт : 448 Кбит/сек
Каналы : 6 каналов
Расположение каналов : Front: L C R, Side: L R, LFE
Частота : 48,0 КГц
Битовая глубина : 16 бит
Метод сжатия : С потерями
Размер потока : 214 Мбайт (2%)
piratbit.org



Скачать Итальянский калейдоскоп в 3D через торрент http://i69.fastpic.ru/big/2015/0515/35/8ce2df1aa0ace10a63bc2b125ba87135.jpg Скачать фильм Итальянский калейдоскоп в 3D через торрент бесплантно в хорошем качестве Описание: Продолжение предыдущего фильма-путешествия из цикла "Галопом по Европам". Теперь о путешествии по Италии. Видеоряд снабжен ... 10 10 1
Торрент: Зарегистрирован [2015-12-01 06:49] · скачан: 87 раз
Статус: √ проверено
Размер: 12.3 GB
Как cкачать? Как скачать Итальянский калейдоскоп в 3D через торрент | qTorrent

28-11-2019 20:33  

Отключить всю рекламу на сайте

    Дорогой пользователь! Огромная просьба, поблагодарите релизера, оцените раздачу и оставьте свои комментарий, если Вы скачали Итальянский калейдоскоп в 3D через торрент бесплатно! Внесите свою лепту в развитие PiratBit!
    Комментировать посты могут только пользователи прошедшие не сложную регистрацию
    Показать сообщения:    

    Итальянский калейдоскоп в 3D через торрент
    Скачать бесплатно Итальянский калейдоскоп в 3D
    Итальянский калейдоскоп в 3D скачать торрент
    Итальянский калейдоскоп в 3D смотреть онлайн
    Cкачать фильм Итальянский калейдоскоп в 3D бесплатно
    Итальянский калейдоскоп в 3D скачать торрент в хорошем качестве
    Итальянский калейдоскоп в 3D смотреть онлайн бесплатно в хорошем качестве


    Вы не можете начинать темы
    Вы не можете отвечать на сообщения
    Вы не можете редактировать свои сообщения
    Вы не можете удалять свои сообщения
    Вы не можете голосовать в опросах
    Вы не можете прикреплять файлы к сообщениям
    Вы можете скачивать файлы