Лицензия

MVO

1

1 сезон

Лицензия

Лицензия

13

MVO

1 сезон

Deluxe Edition

pack

Рекомендуем

30

Repack

ВАЖНО

ВАЖНО

Ghostwire

RePack

jed

RePack

fifa19

RePack

RDR2

RePack

NEED FOR SPEED™ PAYBACK

RePack

Кинопоиск HD

 Острые козырьки 6 сезон

6 сезон

FAR CRY 6

RePack

Лицензия

MVO

1

1 сезон

1 сезон

Лицензия

  

Непобедимый (Юрий Борецкий) [1983, СССР, боевик, приключения, DVDRip от AVP Studio]

Непобедимый через торрент piratbit.org

Размер: 743 MB | Добавлен: 6 лет 9 мес. назад | Торрент скачан:64 раза
Смотреть онлайн Непобедимый | Скачать   

01-12-2015 09:56 Непобедимый Скачать торрент  

Непобедимый
Страна: СССР
Производство: к/ст имени М. Горького

Жанр: боевик, приключения
Год выпуска: 1983
Продолжительность: 01:13:42

Перевод: Не требуется
Cубтитры: нет
Оригинальная аудиодорожка: русский

Режиссер: Юрий Борецкий

В ролях:
Андрей Ростоцкий, Хамза Умаров, Нурмухан Жантурин, Ёдгар Сагдиев, Гульнара Дусматова, Биродар Атабаев, Дильшот Исмаилов, Николай Карпов, Тухтасын Муратов...
Полный список актёров

Описание:
Фильм посвящён памяти заслуженного мастера спорта, основоположника борьбы самбо Анатолия Аркадьевича Харлампиева (1906-1979).
Андрей Хромов одержим идеей создать вид борьбы — "самооборону без оружия". И с этой целью едет в Среднюю Азию, где знакомится с народной борьбой кураш. За время пребывания он не раз попадает в трудные ситуации, из которых выходит с честью.

Источник: DVD5 R5
Качество видео: DVDRip
Формат видео: AVI

Видео: 704x336 (2,095:1), 25 fps, XviD ~ 1208 kbps avg, 0.204 bit/pixel
Аудио: 48 kHz, Dolby Digital AC3 2.0, 192 kbps

Раздача от:
Общее
Полное имя : Nepobedimyy.1983.DVDRip_[New-team]_by_AVP_Studio.avi
Формат : AVI
Формат/Информация : Audio Video Interleave
Размер файла : 743 Мбайт
Продолжительность : 1 ч. 13 м.
Общий поток : 1409 Кбит/сек
Программа кодирования : VirtualDubMod 1.5.10.3 | www.virtualdub-fr.org || (build 2550/release)
Библиотека кодирования : VirtualDubMod build 2550/release

Видео
Идентификатор : 0
Формат : MPEG-4 Visual
Профиль формата : Advanced Simple@L5
Параметр BVOP формата : 1
Параметр QPel формата : Нет
Параметр GMC формата : Без точки перехода
Параметр матрицы формата : Выборочная
Идентификатор кодека : XVID
Идентификатор кодека/Подсказка : XviD
Продолжительность : 1 ч. 13 м.
Битрейт : 1208 Кбит/сек
Ширина : 704 пикселя
Высота : 336 пикселей
Соотношение сторон : 2,095
Частота кадров : 25,000 кадров/сек
Цветовое пространство : YUV
Субдискретизация насыщенности : 4:2:0
Битовая глубина : 8 бит
Тип развёртки : Прогрессивная
Метод сжатия : С потерями
Бит/(Пиксели*Кадры) : 0.204
Размер потока : 636 Мбайт (86%)
Библиотека кодирования : XviD 73

Аудио
Идентификатор : 1
Формат : AC-3
Формат/Информация : Audio Coding 3
Расширение режима : CM (complete main)
Параметр Endianness формата : Big
Идентификатор кодека : 2000
Продолжительность : 1 ч. 13 м.
Вид битрейта : Постоянный
Битрейт : 192 Кбит/сек
Каналы : 2 канала
Расположение каналов : Front: L R
Частота : 48,0 КГц
Метод сжатия : С потерями
Размер потока : 101 Мбайт (14%)
Выравнивание : Разделение по промежуткам
Продолжительность промежутка : 40 мс. (1,00 видеокадр)
Время предзагрузки промежутка : 500 мс



Скачать Непобедимый через торрент http://s017.radikal.ru/i440/1512/69/daed65d00222.png Скачать, смотреть онлайн Непобедимый бесплантно в хорошем качестве Описание:Фильм посвящён памяти заслуженного мастера спорта, основоположника борьбы самбо Анатолия Аркадьевича Харлампиева ... 10 10 1
Торрент: Зарегистрирован [2015-12-01 09:56] · скачан: 64 раз
Статус: √ проверено
Размер: 743 MB
Как cкачать? Как скачать Непобедимый через торрент | UTorrent

% Раздел Тема Автор DL S | L
Кино СССР [ 744 MB ] Непобедимый | | DVDRip-AVC от AVP Studio AVP Studio Скачать
2 | 0
Кино СССР [ 700 MB ] Непобедимый | | DVDRip vasilich619 Скачать
1 | 0

28-11-2019 20:33  

Отключить вcю реклaмy на сайте

    Дорогой пользователь! Огромная просьба, поблагодарите релизера, оцените раздачу и оставьте свои комментарий, если Вы скачали Непобедимый через торрент бесплатно!!
    Комментировать посты могут только пользователи прошедшие не сложную регистрацию
    Показать сообщения:    


    Непобедимый через торрент
    Скачать бесплатно Непобедимый
    Непобедимый скачать торрент
    Непобедимый смотреть онлайн
    Cкачать фильм Непобедимый бесплатно
    Непобедимый скачать торрент в хорошем качестве
    Непобедимый смотреть онлайн бесплатно в хорошем качестве
    Вы не можете начинать темы
    Вы не можете отвечать на сообщения
    Вы не можете редактировать свои сообщения
    Вы не можете удалять свои сообщения
    Вы не можете голосовать в опросах
    Вы не можете прикреплять файлы к сообщениям
    Вы можете скачивать файлы