1 сезон

3 сезон

iTunes

1

iTunes

DUB Netflix

iTunes

13

1 сезон

RePack

30

Deluxe

pack

Легкие деньги

ВАЖНО

ИГРА 18+

pack

RePack

MK11

RePack

jed

RePack

fifa19

RePack

RDR2

RePack

NEED FOR SPEED™ PAYBACK

4 сезон

9 сезон

Бесстыжие 9 сезон

Все сериалы

все сериалы на PB.wtf

RePack

FAR CRY 5

Anonymous, доброй ночи, мы не успеваем до 1 числа собрать деньги на оплату серверов, помогите нам пожалуйста в это трудное время. В качестве благодарности мы отключим Вам всю рекламу на сайте (укажите свой ник в строку Ваше имя)!

×
  
Magnet ссылка

Деффчонки / Сезон: 5 / Серии: 1-21 из 21 (Сергей Корягин) [2015 г., ситком, комедия, SATRip] piratbit.org

Деффчонки через торрент piratbit.org

Размер: 6.5 GB | Добавлен: 5 лет 6 мес. назад | Торрент скачан:116 раз
Скачать  

01-12-2015 10:42 Деффчонки Скачать торрент  

Деффчонки
Год выпуска: 2015
Страна: Россия
Жанр: ситком, комедия
Продолжительность cерии: ~00:25:00.

  • Перевод: Не требуется ;

Режиссер: Сергей Корягин
В ролях:
Галина Боб, Таисия Вилкова, Анастасия Денисова, Полина Максимова, Алексей Воробьёв, Родион Юрин, Тимур Боканча, Александр Серов-Останкинский
Описание:
Маше Бобылкиной повезло. Ее парень Серега Звонарев – красавчик с прокачанным прессом, к тому же поп-звезда. Но есть у Звонаря один недостаток, перевешивающий все достоинства. Он не спешит делать Бобылычу предложение.
Но Маша - современная девушка, сильная, целеустремленная и не самая глупая. Поэтому она берет инициативу в свои руки! Если хочешь, чтобы что-нибудь было сделано хорошо, – сделай это сам. Вот Маша и делает Звонарю… предложение. А потом еще раз. И еще…
Серьезный подход Маши к семейным ценностям влияет на поведение ее подруг. Леля изо всех сил старается сохранить серьезность в отношениях с Геной. А вот Палну несет совсем в другую сторону. Она теперь совсем не хочет замуж, а наоборот – идет в полный отрыв и загул. А что – молодая же еще!
Апофеозом же станет пышная свадьба Бобылыча. Ведь Звонарев – СОГЛАСЕН!


  • Тип релиза: SATRip
  • Формат: AVI
  • Видео кодек: XviD | Аудио кодек: MP3
  • Видео: 720x400 (1.80:1), 25 fps, XviD build 50 ~1799 kbps avg, 0.25 bit/pixel
  • Аудио: 48 kHz, MPEG Layer 3, 2 ch, ~128.00 kbps avg
Внимание! Раздача ведётся путём добавления новых серий; при каждом добавлении создаётся новый торрент-файл. Чтобы начать дозакачку новой серии, пользователям необходимо сделать следующее:
(1) остановить скачивание,
(2) удалить старый торрент-файл у себя из клиента (старые серии удалять не надо),
(3) скачать новый торрент-файл и запустить его у себя в клиенте вместо старого, при этом указать клиенту путь в старую папку куда и должно происходить скачивание новых серий.
Ваш клиент при этом должен произвести хеширование (проверку) старой папки (если не производит сам - помогите ему сделать это), и будет докачивать только те серии которых у вас ещё нет. Старые серии при этом не удаляются, а продолжают раздаваться!
Eсли вы уже удалили старые серии, то предотвратить повторную закачку старых серий можно, отжав галочку в соответствующих местах при запуске нового торрента.
Общее
Полное имя : C:\торрент\тор\Deffchonki (S05) SATRip\Deffchonki.5.01.SATRip.avi
Формат : AVI
Формат/Информация : Audio Video Interleave
Размер файла : 322 Мбайт
Продолжительность : 23 м.
Общий поток : 1938 Кбит/сек
Программа кодирования : VirtualDubMod 1.5.10.3 | www.virtualdub-fr.org || (build 2550/release)
Библиотека кодирования : VirtualDubMod build 2550/release

Видео
Идентификатор : 0
Формат : MPEG-4 Visual
Профиль формата : Advanced Simple@L5
Параметр BVOP формата : 2
Параметр QPel формата : Нет
Параметр GMC формата : Без точки перехода
Параметр матрицы формата : Default (MPEG)
Идентификатор кодека : XVID
Идентификатор кодека/Подсказка : XviD
Продолжительность : 23 м.
Битрейт : 1800 Кбит/сек
Ширина : 720 пикселей
Высота : 400 пикселей
Соотношение сторон : 16:9
Частота кадров : 25,000 кадров/сек
Цветовое пространство : YUV
Субдискретизация насыщенности : 4:2:0
Битовая глубина : 8 бит
Тип развёртки : Прогрессивная
Метод сжатия : С потерями
Бит/(Пиксели*Кадры) : 0.250
Размер потока : 299 Мбайт (93%)
Библиотека кодирования : XviD 1.2.1 (UTC 2008-12-04)

Аудио
Идентификатор : 1
Формат : MPEG Audio
Версия формата : Version 1
Профиль формата : Layer 3
Режим : Joint stereo
Расширение режима : MS Stereo
Идентификатор кодека : 55
Идентификатор кодека/Подсказка : MP3
Продолжительность : 23 м.
Вид битрейта : Постоянный
Битрейт : 128 Кбит/сек
Каналы : 2 канала
Частота : 48,0 КГц
Метод сжатия : С потерями
Размер потока : 21,2 Мбайт (7%)
Выравнивание : Соединение по промежуткам
Продолжительность промежутка : 40 мс. (1,00 видеокадр)
Время предзагрузки промежутка : 504 мс.
Библиотека кодирования : LAME3.99r
Настройки программы : -m j -V 4 -q 9 -lowpass 17 -b 128
Обновлено! Сезон завершен!!!piratbit.org



Скачать Деффчонки через торрент https://pic1.kartinco.top/images/10/ypovf.jpg Скачать фильм Деффчонки через торрент бесплантно в хорошем качестве Описание: Маше Бобылкиной повезло. Ее парень Серега Звонарев – красавчик с прокачанным прессом, к тому же поп-звезда. Но есть у Звонаря ... 9.2 10 17
Info! Золотая раздача, скачанное не засчитывается.
Торрент: Зарегистрирован [2015-12-17 12:33] · скачан: 116 раз
Статус: √ проверено
Размер: 6.5 GB
Как cкачать? Как скачать Деффчонки через торрент | UTorrent



Последний раз редактировалось: diletant (2015-12-17 12:33), всего редактировалось 4 раз(а)

28-11-2019 20:33  

Отключить всю рекламу на сайте

08-12-2015 11:40 Деффчонки Скачать торрент  

Сериал для тех кому нравится сериал "Кухня" разные по содержанию,но одинаковые по смыслу.piratbit.org



17-12-2015 13:41 Деффчонки Скачать торрент  

сериал для ...ей о ...дях. :shoot2:piratbit.org



    Дорогой пользователь! Огромная просьба, поблагодарите релизера, оцените раздачу и оставьте свои комментарий, если Вы скачали Деффчонки через торрент бесплатно! Внесите свою лепту в развитие PiratBit!
    Комментировать посты могут только пользователи прошедшие не сложную регистрацию
    Показать сообщения:    

    Деффчонки через торрент
    Скачать бесплатно Деффчонки
    Деффчонки скачать торрент
    Деффчонки смотреть онлайн
    Cкачать фильм Деффчонки бесплатно
    Деффчонки скачать торрент в хорошем качестве
    Деффчонки смотреть онлайн бесплатно в хорошем качестве


    Вы не можете начинать темы
    Вы не можете отвечать на сообщения
    Вы не можете редактировать свои сообщения
    Вы не можете удалять свои сообщения
    Вы не можете голосовать в опросах
    Вы не можете прикреплять файлы к сообщениям
    Вы можете скачивать файлы