Присоединяйтесь к нам в Telegram!, здесь всегда актуальный адрес сайта, оперативная поддержка и многое другое!!

>

5.9

iTunes

7.4

iTunes

9.4

1 сезон

1

7.4

2 сезон

7.2

iTunes

7.3

iTunes

13

6.1

iTunes

8.3

Пиратка

30

ULTIMATE

pack

9.9

Лицензия

ВАЖНО

ИГРА 18+

pack

7.3

RePack

MK11

7.7

RePack

jed

7.8

RePack

fifa19

8.5

RePack

RDR2

RePack

NEED FOR SPEED™ PAYBACK

5 сезон

9 сезон

Бесстыжие 9 сезон

Все сериалы

все сериалы на PB.wtf

RePack

FAR CRY 5

Anonymous, добрый вечер, мы катастрофически не успеваем собрать деньги на оплату серверов, помогите нам пожалуйста 5,10,15р., для нас важна любая помощь . В качестве благодарности мы отключим Вам всю рекламу на сайте (укажите свой ник в строку Ваше имя)!

×
  
Magnet ссылка

Ловушка для привидения / Gespensterjäger (Тоби Бауманн) [2015, фэнтези, комедия, семейный, HDRip, Любительский (двухголосый) piratbit.org

Ловушка для привидения через торрент piratbit.org

Размер: 1.46 GB | Добавлен: 6 лет назад | Торрент скачан:304 раза
Смотреть онлайн Ловушка для привидения | Скачать    Ребята, помогите собрать деньги на оплату серверов!!!

03-12-2015 21:28 Ловушка для привидения Скачать торрент  


Ловушка для привидения / Gespensterjäger


ИНФОРМАЦИЯ:
Год выпуска:2015
Страна: Германия, Австрия, Ирландия
Жанр: фэнтези, комедия, семейный
Продолжительность: 01:38:48
Перевод: Любительский (двухголосый) [Parovoz Production]
Режиссер: Тоби Бауманн

В Ролях:


Анке Энгельке (Hetty Cuminseed / Hedwig Kümmelsaft), Майло Паркер (Tom Thompson / Tom Tomsky), Бастиан Пастевка (Hugo, озвучка), Каролина Херфурт (Hopkins / Frau Hoffmann), Кристиан Трамиц (Gregory / Gregor Schmidt), Кристиан Ульмен (Phil Thompson / Till Tomsky), Юлия Кошиц (Patricia Thompson / Patrizia Tomsky), Руби О. Фи (Lola Thompson / Lola Tomsky), Эми Хубермэн (Emily), Бибиан Целлер (Mrs. Kubicheck / Frau Kubicheck), Каролин Кебекус (Glenda (Horrorfilm)), Аксель Штайн (George (Horrorfilm))

Описание:
История 11-летнего одинокого Тома. После встречи с очаровательным упитанным привидением Хьюго в подвале своего дома жизнь мальчика изменится самым удивительным образом. Ему придется проявить истинную храбрость и на пару с охотницей за привидениями Хэтти помочь Хьюго вернуться к себе домой. Для этого героям нужно пройти через массу препятствий, чтобы уничтожить Древний Дух Льда, который живет в доме Хьюго, и грозит повергнуть весь город в вечную мерзлоту. Но для того, чтобы совершить подвиги, Тому и Хэтти нужно будет заглянуть к себе в сердце...

  • Мировая премьера:2 апреля 2015

    ТЕХ.ДАННЫЕ:
    Качество: HDRip
    Формат: AVI
    Видео: XviD, 720x304 (2.35:1), 1823 kbps, 23,976 fps, 0,348 bpp
    Аудио: AC3 / 2.0 / 48 kHz / 192 kbps / 16 bit


    General
    Complete name : D:\Торенты\L0vu6ka.2lya.5RiV1deN1ya.2015.L2.HDRip.avi
    Format : AVI
    Format/Info : Audio Video Interleave
    File size : 1.46 GiB
    Duration : 1h 38mn
    Overall bit rate : 2 108 Kbps

    Video
    ID : 0
    Format : MPEG-4 Visual
    Format profile : Advanced Simple@L5
    Format settings, BVOP : 2
    Format settings, QPel : No
    Format settings, GMC : No warppoints
    Format settings, Matrix : Default (MPEG)
    Codec ID : XVID
    Codec ID/Hint : XviD
    Duration : 1h 38mn
    Bit rate : 1 824 Kbps
    Width : 720 pixels
    Height : 304 pixels
    Display aspect ratio : 2.35:1
    Frame rate : 23.976 fps
    Color space : YUV
    Chroma subsampling : 4:2:0
    Bit depth : 8 bits
    Scan type : Progressive
    Compression mode : Lossy
    Bits/(Pixel*Frame) : 0.348
    Stream size : 1.26 GiB (87%)
    Writing library : XviD 1.2.1 (UTC 2008-12-04)

    Audio
    ID : 1
    Format : AC-3
    Format/Info : Audio Coding 3
    Mode extension : CM (complete main)
    Codec ID : 2000
    Duration : 1h 38mn
    Bit rate mode : Constant
    Bit rate : 192 Kbps
    Channel(s) : 2 channels
    Channel positions : Front: L R
    Sampling rate : 48.0 KHz
    Bit depth : 16 bits
    Compression mode : Lossy
    Stream size : 136 MiB (9%)
    Alignment : Split accross interleaves
    Скриншоты:

    © Оформление by .::Ворон::.
    piratbit.org



  • Скачать Ловушка для привидения через торрент https://pic1.kartinco.top/images/61/ordi9.jpg Скачать, смотреть онлайн Ловушка для привидения бесплантно в хорошем качестве Описание: История 11-летнего одинокого Тома. После встречи с очаровательным упитанным привидением Хьюго в подвале своего дома жизнь ... 9.8 10 11
    Торрент: Зарегистрирован [2015-12-03 21:28] · скачан: 304 раз
    Статус: T временная
    Размер: 1.46 GB
    Как cкачать? Как скачать Ловушка для привидения через торрент | UTorrent

    % Раздел Тема Автор DL S | L
    T Фильмы [HD 720p, 1080p] (Звук Cam, VO, DVO) [ 7.97 GB ] Ловушка для привидения / Gespensterjäger [2015 BDRip 1080p Любительский Ворон Скачать
    1 | 0

    28-11-2019 20:33  

    Отключить всю рекламу на сайте

      Дорогой пользователь! Огромная просьба, поблагодарите релизера, оцените раздачу и оставьте свои комментарий, если Вы скачали Ловушка для привидения через торрент бесплатно!
      Комментировать посты могут только пользователи прошедшие не сложную регистрацию
      Показать сообщения:    

      Ловушка для привидения через торрент
      Скачать бесплатно Ловушка для привидения
      Ловушка для привидения скачать торрент
      Ловушка для привидения смотреть онлайн
      Cкачать фильм Ловушка для привидения бесплатно
      Ловушка для привидения скачать торрент в хорошем качестве
      Ловушка для привидения смотреть онлайн бесплатно в хорошем качестве


      Вы не можете начинать темы
      Вы не можете отвечать на сообщения
      Вы не можете редактировать свои сообщения
      Вы не можете удалять свои сообщения
      Вы не можете голосовать в опросах
      Вы не можете прикреплять файлы к сообщениям
      Вы можете скачивать файлы