Доктор Стрэндж

Лицензия

Добыча

Дубляж

Дом дракона

1 сезон

Тор

Дубляж

В эфире

Дубляж

Там, где раки поют

MVO

Властелин колец

1 сезон

Deluxe

pack

Рекомендуем

30

Пиратка

ВАЖНО

ВАЖНО

Ghostwire

Пиратка

jed

RePack

nioh2

RePack

RDR2

RePack

NEED FOR SPEED™ PAYBACK

RePack

скачать торрент

Кинопоиск HD

Острые козырьки 6 сезон

6 сезон

FAR CRY 6

RePack

скачать торрент

Лицензия

скачать торрент

MVO

1

1 сезон

скачать торрент

1 сезон

скачать торрент

Лицензия

  

Ловушка для привидения / Gespensterjäger (Тоби Бауманн) [2015, фэнтези, комедия, семейный, BDRip 1080p, Любительский (двухголосый)

Ловушка для привидения через торрент piratbit.org

Размер: 7.97 GB | Добавлен: 6 лет 11 мес. назад | Торрент скачан:101 раз
Смотреть онлайн | Скачать   

03-12-2015 21:30 Ловушка для привидения Скачать торрент  

Ловушка для привидения / Gespensterjäger


ИНФОРМАЦИЯ:
Год выпуска:2015
Страна: Германия, Австрия, Ирландия
Жанр: фэнтези, комедия, семейный
Продолжительность: 01:38:50
Перевод: Любительский (двухголосый) [Parovoz Production]
Субтитры: русские
Режиссер: Тоби Бауманн

В Ролях:


Анке Энгельке (Hetty Cuminseed / Hedwig Kümmelsaft), Майло Паркер (Tom Thompson / Tom Tomsky), Бастиан Пастевка (Hugo, озвучка), Каролина Херфурт (Hopkins / Frau Hoffmann), Кристиан Трамиц (Gregory / Gregor Schmidt), Кристиан Ульмен (Phil Thompson / Till Tomsky), Юлия Кошиц (Patricia Thompson / Patrizia Tomsky), Руби О. Фи (Lola Thompson / Lola Tomsky), Эми Хубермэн (Emily), Бибиан Целлер (Mrs. Kubicheck / Frau Kubicheck), Каролин Кебекус (Glenda (Horrorfilm)), Аксель Штайн (George (Horrorfilm))

Описание:
История 11-летнего одинокого Тома. После встречи с очаровательным упитанным привидением Хьюго в подвале своего дома жизнь мальчика изменится самым удивительным образом. Ему придется проявить истинную храбрость и на пару с охотницей за привидениями Хэтти помочь Хьюго вернуться к себе домой. Для этого героям нужно пройти через массу препятствий, чтобы уничтожить Древний Дух Льда, который живет в доме Хьюго, и грозит повергнуть весь город в вечную мерзлоту. Но для того, чтобы совершить подвиги, Тому и Хэтти нужно будет заглянуть к себе в сердце...

  • Мировая премьера:2 апреля 2015

    ТЕХ.ДАННЫЕ:
    Качество: BDRip 1080p
    Формат: MKV
    Видео: AVC, 1920x800 (2.40:1), 10737 kbps, 23,976 fps, 0,292 bpp
    Аудио №1: русский / AC3 / 2.0 / 48 kHz / 192 kbps / 16 bit ||
    Аудио №2: английский / AC3 / 5.1 / 48 kHz / 384 kbps / 16 bit
    Навигация по главам: есть


    General
    Unique ID : 222933826857154741488545837202011702993 (0xA7B77E4757BBDF1E91A46C3B90D9C6D1)
    Complete name : D:\Торенты\L0vu6ka.2lya.5RiV1deN1ya.2015.L2.BDRip.1080p.mkv
    Format : Matroska
    Format version : Version 4 / Version 2
    File size : 7.97 GiB
    Duration : 1h 38mn
    Overall bit rate : 11.5 Mbps

    Encoded date : UTC 2015-12-03 18:16:02
    Writing application : mkvmerge v8.6.1 ('Flying') 64bit
    Writing library : libebml v1.3.3 + libmatroska v1.4.4

    Video
    ID : 1
    Format : AVC
    Format/Info : Advanced Video Codec
    Format profile : High@L4.1
    Format settings, CABAC : Yes
    Format settings, ReFrames : 4 frames
    Codec ID : V_MPEG4/ISO/AVC
    Duration : 1h 38mn
    Bit rate : 10.7 Mbps
    Nominal bit rate : 11.5 Mbps
    Width : 1 920 pixels
    Height : 800 pixels
    Display aspect ratio : 2.40:1
    Frame rate mode : Variable
    Frame rate : 23.976 fps
    Color space : YUV
    Chroma subsampling : 4:2:0
    Bit depth : 8 bits
    Scan type : Progressive
    Bits/(Pixel*Frame) : 0.292
    Stream size : 7.41 GiB (93%)
    Title : L0vu6ka.2lya.5RiV1deN1ya.2015.L2.BDRip.1080p.
    Writing library : x264 core 146 r2555 0c21480
    Encoding settings : cabac=1 / ref=4 / deblock=1:-2:-2 / analyse=0x3:0x113 / me=umh / subme=7 / psy=1 / psy_rd=1.00:0.15 / mixed_ref=1 / me_range=16 / chroma_me=1 / trellis=1 / 8x8dct=1 / cqm=0 / deadzone=21,11 / fast_pskip=1 / chroma_qp_offset=-3 / threads=12 / lookahead_threads=3 / sliced_threads=0 / nr=0 / decimate=1 / interlaced=0 / bluray_compat=0 / constrained_intra=0 / bframes=3 / b_pyramid=2 / b_adapt=2 / b_bias=0 / direct=3 / weightb=1 / open_gop=0 / weightp=2 / keyint=250 / keyint_min=25 / scenecut=40 / intra_refresh=0 / rc_lookahead=50 / rc=abr / mbtree=1 / bitrate=11500 / ratetol=1.0 / qcomp=0.60 / qpmin=0 / qpmax=69 / qpstep=4 / vbv_maxrate=31250 / vbv_bufsize=31250 / nal_hrd=none / filler=0 / ip_ratio=1.40 / aq=1:1.00
    Language : English
    Default : Yes
    Forced : No

    Audio #1
    ID : 2
    Format : AC-3
    Format/Info : Audio Coding 3
    Mode extension : CM (complete main)
    Codec ID : A_AC3
    Duration : 1h 38mn
    Bit rate mode : Constant
    Bit rate : 192 Kbps
    Channel(s) : 2 channels
    Channel positions : Front: L R
    Sampling rate : 48.0 KHz
    Bit depth : 16 bits
    Compression mode : Lossy
    Stream size : 136 MiB (2%)
    Title : L0vu6ka.2lya.5RiV1deN1ya.2015.L2.BDRip.1080p.
    Language : Russian
    Default : Yes
    Forced : No

    Audio #2
    ID : 3
    Format : AC-3
    Format/Info : Audio Coding 3
    Mode extension : CM (complete main)
    Codec ID : A_AC3
    Duration : 1h 38mn
    Bit rate mode : Constant
    Bit rate : 384 Kbps
    Channel(s) : 6 channels
    Channel positions : Front: L C R, Side: L R, LFE
    Sampling rate : 48.0 KHz
    Bit depth : 16 bits
    Compression mode : Lossy
    Stream size : 271 MiB (3%)
    Title : L0vu6ka.2lya.5RiV1deN1ya.2015.L2.BDRip.1080p
    Language : English
    Default : No
    Forced : No

    Text
    ID : 4
    Format : UTF-8
    Codec ID : S_TEXT/UTF8
    Codec ID/Info : UTF-8 Plain Text
    Title : L0vu6ka.2lya.5RiV1deN1ya.2015.L2.BDRip.1080p
    Language : Russian
    Default : Yes
    Forced : Yes

    Menu
    00:00:00.000 : en:Chapter 01
    00:07:07.927 : en:Chapter 02
    00:15:50.824 : en:Chapter 03
    00:25:28.693 : en:Chapter 04
    00:32:54.430 : en:Chapter 05
    00:40:22.420 : en:Chapter 06
    00:49:44.189 : en:Chapter 07
    00:58:54.697 : en:Chapter 08
    01:07:35.134 : en:Chapter 09
    01:14:43.729 : en:Chapter 10
    01:21:47.986 : en:Chapter 11
    01:29:44.796 : en:Chapter 12
    Скриншоты:

    © Оформление by .::Ворон::.



  • Скачать Ловушка для привидения через торрент http://i2-imageban-ru.translate.goog/out/2015/12/04/4c6089e86322189b797a20d6fb737b5e.jpg Скачать, смотреть онлайн Ловушка для привидения бесплантно в хорошем качестве Описание: История 11-летнего одинокого Тома. После встречи с очаровательным упитанным привидением Хьюго в подвале своего дома жизнь ... 8.2 10 5
    Торрент: Зарегистрирован [2015-12-03 21:30] · скачан: 101 раз
    Статус: T временная
    Размер: 7.97 GB
    Как cкачать? Как скачать Ловушка для привидения через торрент | UTorrent

    % Раздел Тема Автор DL S | L
    T Фильмы 2015 (Звук TS, Cam, VO, DVO) [ 1.46 GB ] Ловушка для привидения / Gespensterjäger | Ловушка для привидения / Gespensterjäger | HDRip, Любительский (двухголосый Ворон Скачать
    1 | 0

    28-11-2019 20:33  


    Отключить вcю реклaмy на сайте, в т.ч. и в плеере онлайн просмотра!

    04-12-2015 17:05 Ловушка для привидения Скачать торрент  

    как ильм?



      Дорогой пользователь! Огромная просьба, поблагодарите релизера, оцените раздачу и оставьте свои комментарий, если Вы скачали Ловушка для привидения через торрент бесплатно!!
      Комментировать посты могут только пользователи прошедшие не сложную регистрацию
      Показать сообщения:    


      Ловушка для привидения через торрент
      Скачать бесплатно Ловушка для привидения
      Ловушка для привидения скачать торрент
      Ловушка для привидения смотреть онлайн
      Cкачать фильм Ловушка для привидения бесплатно
      Ловушка для привидения скачать торрент в хорошем качестве
      Ловушка для привидения смотреть онлайн бесплатно в хорошем качестве
      Вы не можете начинать темы
      Вы не можете отвечать на сообщения
      Вы не можете редактировать свои сообщения
      Вы не можете удалять свои сообщения
      Вы не можете голосовать в опросах
      Вы не можете прикреплять файлы к сообщениям
      Вы можете скачивать файлы
      Ловушка для привидения / Gespensterjäger [2015, фэнтези, комедия, семейный, BDRip 1080p, Любительский смотреть онлайн, скачать торрент picoco.icu