Присоединяйтесь к нам в Telegram!, здесь всегда актуальный адрес сайта, оперативная поддержка и многое другое!!

>

5.9

iTunes

7.4

iTunes

9.4

1 сезон

1

7.4

2 сезон

7.2

iTunes

7.3

1 сезон

13

6.1

iTunes

8.3

Пиратка

30

ULTIMATE

pack

9.9

Лицензия

ВАЖНО

ИГРА 18+

pack

7.3

RePack

MK11

7.7

RePack

jed

7.8

RePack

fifa19

8.5

RePack

RDR2

RePack

NEED FOR SPEED™ PAYBACK

5 сезон

9 сезон

Бесстыжие 9 сезон

Все сериалы

все сериалы на PB.wtf

RePack

FAR CRY 5

Anonymous, добрый вечер, мы катастрофически не успеваем собрать деньги на оплату серверов, помогите нам пожалуйста 5,10,15р., для нас важна любая помощь . В качестве благодарности мы отключим Вам всю рекламу на сайте (укажите свой ник в строку Ваше имя)!

×
  
Magnet ссылка

Лазурный берег / By the Sea (Анджелина Джоли) [2015, драма, мелодрама, WEBRip, Любительский (двухголосый) [Parovoz Production] piratbit.org

Лазурный берег через торрент piratbit.org

Размер: 1.37 GB | Добавлен: 6 лет назад | Торрент скачан:334 раза
Смотреть онлайн Лазурный берег | Скачать    Ребята, помогите собрать деньги на оплату серверов!!!

04-12-2015 19:28 Лазурный берег Скачать торрент  


Лазурный берег / By the Sea


ИНФОРМАЦИЯ:
Год выпуска:2015
Страна: США, Франция
Жанр: драма, мелодрама
Продолжительность: 01:59:45
Перевод: Любительский (двухголосый) [Parovoz Production]
Примечание: Присутствуют вшитые китайские субтитры
Режиссер: Анджелина Джоли

В Ролях:


Брэд Питт (Roland), Анджелина Джоли (Vanessa), Мелани Лоран (Lea), Мельвиль Пупо (François), Нильс Ареструп (Michel), Ришар Боренже (Patrice), Марика Грин (Dress Shop Saleswoman), Sarah Naudi (Grocery Clerk), Aldo Buontempo (Fisherman), Philippe Martinet (Maitre D'), Francis Xuereb (Hotel Receptionist), Malcolm Beethans (Older Couple)

Описание:
Франция. Середина 1970-х. Ванесса, бывшая танцовщица, и ее муж Роланд, американский писатель, путешествуют вместе по стране. Понемногу они начинают отдаляться друг от друга, но все меняется, когда они задерживаются в одном тихом приморском городке...

  • Мировая премьера:5 ноября 2015

    ТЕХ.ДАННЫЕ:
    Качество: WEBRip
    Формат: AVI
    Видео: XviD, 720x304 (2.35:1), 1435 kbps, 23,976 fps, 0,273 bpp
    Аудио: AC3 / 2.0 / 48 kHz / 128 kbps / 16 bit


    General
    Complete name : D:\Торенты\1aZuRn1y.BeReg.2015.L2.WEBRip.1400MB.avi
    Format : AVI
    Format/Info : Audio Video Interleave
    File size : 1.37 GiB
    Duration : 1h 59mn
    Overall bit rate : 1 637 Kbps

    Video
    ID : 0
    Format : MPEG-4 Visual
    Format profile : Advanced Simple@L5
    Format settings, BVOP : 2
    Format settings, QPel : No
    Format settings, GMC : No warppoints
    Format settings, Matrix : Default (MPEG)
    Codec ID : XVID
    Codec ID/Hint : XviD
    Duration : 1h 59mn
    Bit rate : 1 435 Kbps
    Width : 720 pixels
    Height : 304 pixels
    Display aspect ratio : 2.35:1
    Frame rate : 23.976 fps
    Color space : YUV
    Chroma subsampling : 4:2:0
    Bit depth : 8 bits
    Scan type : Progressive
    Compression mode : Lossy
    Bits/(Pixel*Frame) : 0.273
    Stream size : 1.20 GiB (88%)
    Writing library : XviD 1.2.1 (UTC 2008-12-04)

    Audio
    ID : 1
    Format : AC-3
    Format/Info : Audio Coding 3
    Mode extension : CM (complete main)
    Codec ID : 2000
    Duration : 1h 59mn
    Bit rate mode : Constant
    Bit rate : 128 Kbps
    Channel(s) : 2 channels
    Channel positions : Front: L R
    Sampling rate : 48.0 KHz
    Bit depth : 16 bits
    Compression mode : Lossy
    Stream size : 110 MiB (8%)
    Alignment : Split accross interleaves
    Скриншоты:

    © Оформление by .::Ворон::.
    piratbit.org



  • Скачать Лазурный берег через торрент https://pic1.kartinco.top/images/61/ordi9.jpg Скачать, смотреть онлайн Лазурный берег бесплантно в хорошем качестве Описание: Франция. Середина 1970-х. Ванесса, бывшая танцовщица, и ее муж Роланд, американский писатель, путешествуют вместе по стране. ... 7.8 10 4
    Торрент: Зарегистрирован [2015-12-04 19:28] · скачан: 334 раз
    Статус: T временная
    Размер: 1.37 GB
    Как cкачать? Как скачать Лазурный берег через торрент | UTorrent

    % Раздел Тема Автор DL S | L
    Фильмы с украинским озвучиванием [ 1.45 GB ] Лазурный берег / Біля моря / By the Sea [2015 WEB-DLRip] [Ukr DUB] [LINE] killermax2013 Скачать
    1 | 0

    28-11-2019 20:33  

    Отключить всю рекламу на сайте

    14-12-2015 15:26 Лазурный берег Скачать торрент  

    в такой лаже семейка еще не снималась. Не тратьте время!!!!piratbit.org



      Дорогой пользователь! Огромная просьба, поблагодарите релизера, оцените раздачу и оставьте свои комментарий, если Вы скачали Лазурный берег через торрент бесплатно!
      Комментировать посты могут только пользователи прошедшие не сложную регистрацию
      Показать сообщения:    

      Лазурный берег через торрент
      Скачать бесплатно Лазурный берег
      Лазурный берег скачать торрент
      Лазурный берег смотреть онлайн
      Cкачать фильм Лазурный берег бесплатно
      Лазурный берег скачать торрент в хорошем качестве
      Лазурный берег смотреть онлайн бесплатно в хорошем качестве


      Вы не можете начинать темы
      Вы не можете отвечать на сообщения
      Вы не можете редактировать свои сообщения
      Вы не можете удалять свои сообщения
      Вы не можете голосовать в опросах
      Вы не можете прикреплять файлы к сообщениям
      Вы можете скачивать файлы