Присоединяйтесь к нам в Telegram!, здесь всегда актуальный адрес сайта, оперативная поддержка и многое другое!!

>

5.9

iTunes

7.4

iTunes

9.4

1 сезон

1

7.4

2 сезон

7.2

iTunes

7.3

1 сезон

13

6.1

iTunes

8.3

Пиратка

30

ULTIMATE

pack

9.9

Лицензия

ВАЖНО

ИГРА 18+

pack

7.3

RePack

MK11

7.7

RePack

jed

7.8

RePack

fifa19

8.5

RePack

RDR2

RePack

NEED FOR SPEED™ PAYBACK

5 сезон

9 сезон

Бесстыжие 9 сезон

Все сериалы

все сериалы на PB.wtf

RePack

FAR CRY 5

Anonymous, добрый вечер, мы катастрофически не успеваем собрать деньги на оплату серверов, помогите нам пожалуйста 5,10,15р., для нас важна любая помощь . В качестве благодарности мы отключим Вам всю рекламу на сайте (укажите свой ник в строку Ваше имя)!

×
  
Magnet ссылка

Шах и мат / Checkmate (Тимоти Вудворд мл.) [2015, боевик, триллер, криминал, DVDRip, Любительский (одноголосый)[Barin101] piratbit.org

Шах и мат через торрент piratbit.org

Размер: 1.46 GB | Добавлен: 5 лет 11 мес. назад | Торрент скачан:154 раза
Смотреть онлайн Шах и мат | Скачать    Ребята, помогите собрать деньги на оплату серверов!!!

06-12-2015 09:43 Шах и мат Скачать торрент  


Шах и мат / Checkmate


ИНФОРМАЦИЯ:
Год выпуска:2015
Страна: США
Жанр: боевик, триллер, криминал
Продолжительность: 01:32:30
Перевод: Любительский (одноголосый)[Barin101]
Режиссер: Тимоти Вудворд мл.

В Ролях:


Винни Джонс (Lu), Дэнни Гловер (Elohim), Шон Эстин (Dyson), Майкл Паре (Captain Raymond Mitchell Howard), Миша Бартон (Lauren Campbell), Катрина Ло (Katana), Джонни Месснер (Joey), Энтвон Тэннер (Bones), Уилла Форд (Sasha), Дэвид Чисам (Allen), Мэтт Синкуанта (Matteo), Гленн Дж Адамс (Officer Jones)

Описание:
Шесть человек судьба свела вместе при ограблении банка, одних в роли грабителей, других в роли заложников. Что это - случайность, или они лишь маленькие пешки в чьей-то большой игре?

  • Мировая премьера:3 июля 2015

    ТЕХ.ДАННЫЕ:
    Качество: DVDRip
    Формат: AVI
    Видео: XviD, 720x304 (2.35:1), 1769 kbps, 23,976 fps, 0,337 bpp
    Аудио №1: AC3 / 2.0 / 48 kHz / 192 kbps / Russian
    Аудио №2: AC3 / 2.0 / 48 kHz / 192 kbps / English


    General
    Complete name : D:\Торенты\Checkmate.2015.L1.DVDRip.avi
    Format : AVI
    Format/Info : Audio Video Interleave
    File size : 1.46 GiB
    Duration : 1h 32mn
    Overall bit rate : 2 253 Kbps
    Writing application : VirtualDubMod 1.5.10.3 | www.virtualdub-fr.org || (build 2550/release)
    Writing library : VirtualDubMod build 2550/release

    Video
    ID : 0
    Format : MPEG-4 Visual
    Format profile : Advanced Simple@L5
    Format settings, BVOP : 1
    Format settings, QPel : No
    Format settings, GMC : No warppoints
    Format settings, Matrix : Custom
    Codec ID : XVID
    Codec ID/Hint : XviD
    Duration : 1h 32mn
    Bit rate : 1 769 Kbps
    Width : 720 pixels
    Height : 304 pixels
    Display aspect ratio : 2.35:1
    Frame rate : 23.976 fps
    Color space : YUV
    Chroma subsampling : 4:2:0
    Bit depth : 8 bits
    Scan type : Progressive
    Compression mode : Lossy
    Bits/(Pixel*Frame) : 0.337
    Stream size : 1.14 GiB (79%)
    Writing library : XviD 73

    Audio #1
    ID : 1
    Format : AC-3
    Format/Info : Audio Coding 3
    Mode extension : CM (complete main)
    Codec ID : 2000
    Duration : 1h 32mn
    Bit rate mode : Constant
    Bit rate : 192 Kbps
    Channel(s) : 2 channels
    Channel positions : Front: L R
    Sampling rate : 48.0 KHz
    Bit depth : 16 bits
    Compression mode : Lossy
    Delay relative to video : 574ms
    Stream size : 127 MiB (9%)
    Alignment : Split accross interleaves

    Audio #2
    ID : 2
    Format : AC-3
    Format/Info : Audio Coding 3
    Mode extension : CM (complete main)
    Codec ID : 2000
    Duration : 1h 32mn
    Bit rate mode : Constant
    Bit rate : 192 Kbps
    Channel(s) : 2 channels
    Channel positions : Front: L R
    Sampling rate : 48.0 KHz
    Bit depth : 16 bits
    Compression mode : Lossy
    Delay relative to video : 1s 438ms
    Stream size : 127 MiB (9%)
    Alignment : Split accross interleaves
    Скриншоты:

    © Оформление by .::Ворон::.
    piratbit.org



  • Скачать Шах и мат через торрент https://pic1.kartinco.top/images/61/ordi9.jpg Скачать, смотреть онлайн Шах и мат бесплантно в хорошем качестве Описание: Шесть человек судьба свела вместе при ограблении банка, одних в роли грабителей, других в роли заложников. Что это - случайность, ... 10 10 2
    Торрент: Зарегистрирован [2015-12-06 09:43] · скачан: 154 раз
    Статус: T временная
    Размер: 1.46 GB
    Как cкачать? Как скачать Шах и мат через торрент | UTorrent

    % Раздел Тема Автор DL S | L
    T Фильмы 2015 (Звук TS, Cam, VO, DVO) [ 1.37 GB ] Шах и мат / Checkmate [2015 DVDRip Любительский двухголосый [Саншайн Студио] Ворон Скачать
    1 | 0

    28-11-2019 20:33  

    Отключить всю рекламу на сайте

      Дорогой пользователь! Огромная просьба, поблагодарите релизера, оцените раздачу и оставьте свои комментарий, если Вы скачали Шах и мат через торрент бесплатно!
      Комментировать посты могут только пользователи прошедшие не сложную регистрацию
      Показать сообщения:    

      Шах и мат через торрент
      Скачать бесплатно Шах и мат
      Шах и мат скачать торрент
      Шах и мат смотреть онлайн
      Cкачать фильм Шах и мат бесплатно
      Шах и мат скачать торрент в хорошем качестве
      Шах и мат смотреть онлайн бесплатно в хорошем качестве


      Вы не можете начинать темы
      Вы не можете отвечать на сообщения
      Вы не можете редактировать свои сообщения
      Вы не можете удалять свои сообщения
      Вы не можете голосовать в опросах
      Вы не можете прикреплять файлы к сообщениям
      Вы можете скачивать файлы