1 сезон

3 сезон

iTunes

1

iTunes

MVO

iTunes

13

1 сезон

RePack

30

Deluxe

pack

Лицензия

ВАЖНО

ИГРА 18+

pack

RePack

MK11

RePack

jed

RePack

fifa19

RePack

RDR2

RePack

NEED FOR SPEED™ PAYBACK

4 сезон

9 сезон

Бесстыжие 9 сезон

Все сериалы

все сериалы на PB.wtf

RePack

FAR CRY 5

Anonymous, добрый вечер, мы катастрофически не успеваем собрать деньги на оплату серверов, помогите нам пожалуйста 5,10,15р., для нас важна любая помощь . В качестве благодарности мы отключим Вам всю рекламу на сайте (укажите свой ник в строку Ваше имя)!

×
  
Magnet ссылка

Из 13 в 30 / 13 Going on 30 (Гари Виник) [2004, фэнтези, мелодрама, комедия, BDRip AVC by msltel] DUB, 2 x MVO, AVO piratbit.org

Из 13 в 30 через торрент piratbit.org

Размер: 3.82 GB | Добавлен: 5 лет 7 мес. назад | Торрент скачан:17 раз
Скачать  

09-12-2015 07:36 Из 13 в 30 Скачать торрент  

Название: Из 13 в 30
Оригинальное название: 13 Going on 30
Год выпуска: 2004
Страна: США
Жанр: фэнтези, мелодрама, комедия
Продолжительность: 01:37:48
Перевод: дублированный, профессиональный многоголосый, авторский

Режиссёр: Гари Виник

В ролях: Дженнифер Гарнер, Марк Руффало, Джуди Грир, Энди Серкис, Кэти Бэйкер, Фил Ривз, Сэмюэл Болл, Марсия ДеБонис, Криста Б. Аллен, Шон Маркетт, Кирстен Уоррен, Джо Грифази, Мэри Пэт Глисон, Сьюзэн Иган, Линн Коллинз, Рени Олстэд, Александра Кайл, Алекс Блэк, Эшли Бенсон, Бриттани Каррен, Бри Ларсон, Меган Ласк, Джулия Рот, Джеффри Шэйн Кон, Джордж Хайн, Филип Павел, Сара Лоу, Маз Джобрани, Йен Барфорд, Беннита Криста Нэлл, Робин Ли, Джастин Бурк, Сара Суэйн, Катрин Комбс, Джина Мантенья

Описание: Дети так отчаянно хотят быть взрослыми, не понимая, что пройдут годы, и они так же страстно захотят обратного. Но, так как в нашем мире всё ещё случаются чудеса, некоторым не приходится ждать долго, чтобы убедиться в этом. Сегодня Дженни всего 13, и она очень хочет стать взрослой. Видимо, её желанье попадает по нужному адресу, поскольку на утро она просыпается... 30-летней красавицей! Словно кто-то перемотал пленку с семнадцатью годами жизни. Самое время кричать "ура". Только вот какая штука: для всех эти годы прошли обычным порядком, а во взрослой Дженни, осталась душа девочки-подростка, что постоянно приводит к забавным недоразумениям и ставит в тупик окружающих...



Качество: BDRip AVC Сравнение с исходником
Формат: MKV
Видео: MPEG-4 AVC, 2927 Кбит/с, 1024x554, 23,976 кадра/с
Аудио 1: русский, AC3, 640 kbps, 6 ch, 48 kHz [дублированный]
Аудио 2: русский, AC3, 448 kbps, 6 ch, 48 kHz [профессиональный многоголосый, Tycoon]
Аудио 3: русский, AC3, 384 kbps, 6 ch, 48 kHz [профессиональный многоголосый]
Аудио 4: русский, AC3, 448 kbps, 6 ch, 48 kHz [авторский, Юрий Немахов]
Аудио 5: английский, AC3, 640 kbps, 6 ch, 48 kHz [оригинал]
Субтитры 1: русские
Субтитры 2: английские
Общее
Уникальный идентификатор : 251361465572537374384452912365801328680 (0xBD1A75144EC63E1AA4DBE0C952B85028)
Полное имя : D:\Video\Из 13 в 30.2004.BDRip.AVC.mkv
Формат : Matroska
Версия формата : Version 4 / Version 2
Размер файла : 3,82 Гбайт
Продолжительность : 1 ч. 37 м.
Общий поток : 5599 Кбит/сек
Дата кодирования : UTC 2015-12-09 04:02:29
Программа кодирования : mkvmerge v8.2.0 ('World of Adventure') 64bit
Библиотека кодирования : libebml v1.3.1 + libmatroska v1.4.2
DURATION : 01:32:02.189000000
NUMBER_OF_FRAMES : 1006
NUMBER_OF_BYTES : 38291
_STATISTICS_WRITING_APP : mkvmerge v8.2.0 ('World of Adventure') 64bit
_STATISTICS_WRITING_DATE_UTC : 2015-12-09 04:02:29
_STATISTICS_TAGS : BPS DURATION NUMBER_OF_FRAMES NUMBER_OF_BYTES

Видео
Идентификатор : 1
Формат : AVC
Формат/Информация : Advanced Video Codec
Профиль формата : High@L4.1
Параметр CABAC формата : Да
Параметр ReFrames формата : 9 кадров
Идентификатор кодека : V_MPEG4/ISO/AVC
Продолжительность : 1 ч. 37 м.
Битрейт : 2927 Кбит/сек
Ширина : 1024 пикселя
Высота : 554 пикселя
Соотношение сторон : 1,85:1
Режим частоты кадров : Постоянный
Частота кадров : 23,976 кадра/сек
Цветовое пространство : YUV
Субдискретизация насыщенности : 4:2:0
Битовая глубина : 8 бит
Тип развёртки : Прогрессивная
Бит/(Пиксели*Кадры) : 0.215
Размер потока : 2,00 Гбайт (52%)
Заголовок : BDRip by STarankov
Библиотека кодирования : x264 core 146 r2538 121396c
Настройки программы : cabac=1 / ref=9 / deblock=1:-1:-1 / analyse=0x3:0x113 / me=umh / subme=10 / psy=1 / psy_rd=1.00:0.15 / mixed_ref=1 / me_range=32 / chroma_me=1 / trellis=2 / 8x8dct=1 / cqm=0 / deadzone=21,11 / fast_pskip=1 / chroma_qp_offset=-3 / threads=6 / lookahead_threads=1 / sliced_threads=0 / nr=0 / decimate=1 / interlaced=0 / bluray_compat=0 / constrained_intra=0 / bframes=8 / b_pyramid=2 / b_adapt=2 / b_bias=0 / direct=1 / weightb=1 / open_gop=0 / weightp=2 / keyint=230 / keyint_min=23 / scenecut=40 / intra_refresh=0 / rc_lookahead=40 / rc=crf / mbtree=0 / crf=18.1 / qcomp=0.60 / qpmin=0 / qpmax=69 / qpstep=4 / vbv_maxrate=40000 / vbv_bufsize=50000 / crf_max=0.0 / nal_hrd=none / filler=0 / ip_ratio=1.40 / pb_ratio=1.30 / aq=1:1.00
Язык : English
Default : Да
Forced : Нет
DURATION : 01:37:47.862000000
NUMBER_OF_FRAMES : 140688
NUMBER_OF_BYTES : 2226808205
_STATISTICS_WRITING_APP : mkvmerge v8.2.0 ('World of Adventure') 64bit
_STATISTICS_WRITING_DATE_UTC : 2015-12-09 04:02:29
_STATISTICS_TAGS : BPS DURATION NUMBER_OF_FRAMES NUMBER_OF_BYTES

Аудио #1
Идентификатор : 2
Формат : AC-3
Формат/Информация : Audio Coding 3
Расширение режима : CM (complete main)
Параметр Endianness формата : Big
Идентификатор кодека : A_AC3
Продолжительность : 1 ч. 37 м.
Вид битрейта : Постоянный
Битрейт : 640 Кбит/сек
Каналы : 6 каналов
Расположение каналов : Front: L C R, Side: L R, LFE
Частота : 48,0 КГц
Метод сжатия : С потерями
Размер потока : 448 Мбайт (11%)
Заголовок : DUB (BD CEE)
Язык : Russian
Default : Да
Forced : Нет

Аудио #2
Идентификатор : 3
Формат : AC-3
Формат/Информация : Audio Coding 3
Расширение режима : CM (complete main)
Параметр Endianness формата : Big
Идентификатор кодека : A_AC3
Продолжительность : 1 ч. 37 м.
Вид битрейта : Постоянный
Битрейт : 448 Кбит/сек
Каналы : 6 каналов
Расположение каналов : Front: L C R, Side: L R, LFE
Частота : 48,0 КГц
Метод сжатия : С потерями
Размер потока : 313 Мбайт (8%)
Заголовок : MVO (вариант 1)
Язык : Russian
Default : Нет
Forced : Нет

Аудио #3
Идентификатор : 4
Формат : AC-3
Формат/Информация : Audio Coding 3
Расширение режима : CM (complete main)
Параметр Endianness формата : Big
Идентификатор кодека : A_AC3
Продолжительность : 1 ч. 37 м.
Вид битрейта : Постоянный
Битрейт : 384 Кбит/сек
Каналы : 6 каналов
Расположение каналов : Front: L C R, Side: L R, LFE
Частота : 48,0 КГц
Метод сжатия : С потерями
Размер потока : 269 Мбайт (7%)
Заголовок : MVO (вариант 2)
Язык : Russian
Default : Нет
Forced : Нет

Аудио #4
Идентификатор : 5
Формат : AC-3
Формат/Информация : Audio Coding 3
Расширение режима : CM (complete main)
Параметр Endianness формата : Big
Идентификатор кодека : A_AC3
Продолжительность : 1 ч. 37 м.
Вид битрейта : Постоянный
Битрейт : 448 Кбит/сек
Каналы : 6 каналов
Расположение каналов : Front: L C R, Side: L R, LFE
Частота : 48,0 КГц
Метод сжатия : С потерями
Размер потока : 313 Мбайт (8%)
Заголовок : AVO (Юрий Немахов)
Язык : Russian
Default : Нет
Forced : Нет

Аудио #5
Идентификатор : 6
Формат : AC-3
Формат/Информация : Audio Coding 3
Расширение режима : CM (complete main)
Параметр Endianness формата : Big
Идентификатор кодека : A_AC3
Продолжительность : 1 ч. 37 м.
Вид битрейта : Постоянный
Битрейт : 640 Кбит/сек
Каналы : 6 каналов
Расположение каналов : Front: L C R, Side: L R, LFE
Частота : 48,0 КГц
Метод сжатия : С потерями
Размер потока : 448 Мбайт (11%)
Заголовок : Original
Язык : English
Default : Нет
Forced : Нет

Текст #1
Идентификатор : 7
Формат : UTF-8
Идентификатор кодека : S_TEXT/UTF8
Идентификатор кодека/Информация : UTF-8 Plain Text
Заголовок : русский
Язык : Russian
Default : Нет
Forced : Нет

Текст #2
Идентификатор : 8
Формат : UTF-8
Идентификатор кодека : S_TEXT/UTF8
Идентификатор кодека/Информация : UTF-8 Plain Text
Заголовок : английский
Default : Нет
Forced : Нет
piratbit.org



Скачать Из 13 в 30 через торрент http://s52.radikal.ru/i138/1512/40/4e5105bb541a.png Скачать фильм Из 13 в 30 через торрент бесплантно в хорошем качестве Описание: Дети так отчаянно хотят быть взрослыми, не понимая, что пройдут годы, и они так же страстно захотят обратного. Но, так как в ... 10 10 1
Info! Серебряная раздача, засчитывается только 50% скачанного.
Торрент: Зарегистрирован [2015-12-09 07:36] · скачан: 17 раз
Статус: √ проверено
Размер: 3.82 GB
Как cкачать? Как скачать Из 13 в 30 через торрент | UTorrent

% Раздел Тема Автор DL S | L
Фильмы [HD 720p, 1080p] (Хороший звук DUB, MVO) [ 12.09 GB ] Из 13 в 30 / 13 Going on 30 [2004 BDRip 1080p by msltel] DUB 2 x MVO AVO msltel Скачать
1 | 0
Фильмы [HD 720p, 1080p] (Хороший звук DUB, MVO) [ 5.46 GB ] Из 13 в 30 / 13 Going on 30 [2004 BDRip 720p by msltel] DUB 2 x MVO AVO msltel Скачать
1 | 0

28-11-2019 20:33  

Отключить всю рекламу на сайте


    Дорогой пользователь! Огромная просьба, поблагодарите релизера, оцените раздачу и оставьте свои комментарий, если Вы скачали Из 13 в 30 через торрент бесплатно! Внесите свою лепту в развитие PiratBit!
    Комментировать посты могут только пользователи прошедшие не сложную регистрацию
    Показать сообщения:    

    Из 13 в 30 через торрент
    Скачать бесплатно Из 13 в 30
    Из 13 в 30 скачать торрент
    Из 13 в 30 смотреть онлайн
    Cкачать фильм Из 13 в 30 бесплатно
    Из 13 в 30 скачать торрент в хорошем качестве
    Из 13 в 30 смотреть онлайн бесплатно в хорошем качестве


    Вы не можете начинать темы
    Вы не можете отвечать на сообщения
    Вы не можете редактировать свои сообщения
    Вы не можете удалять свои сообщения
    Вы не можете голосовать в опросах
    Вы не можете прикреплять файлы к сообщениям
    Вы можете скачивать файлы