Доктор Стрэндж

Лицензия

Добыча

MVO

Дом дракона

1 сезон

Тор

Лицензия

Мэверик

Лицензия

Там, где раки поют

MVO

Властелин колец

1 сезон

Ultimate

pack

Рекомендуем

30

Repack

ВАЖНО

ВАЖНО

Ghostwire

RePack

jed

RePack

nioh2

RePack

RDR2

RePack

NEED FOR SPEED™ PAYBACK

RePack

скачать торрент

Кинопоиск HD

Острые козырьки 6 сезон

6 сезон

FAR CRY 6

RePack

скачать торрент

Лицензия

скачать торрент

MVO

1

1 сезон

скачать торрент

1 сезон

скачать торрент

Лицензия

  

Прощай, Америка! (Александр Довженко, Юлия Солнцева) [1951, СССР, политический памфлет, DVDRip от AVP Studio]

Прощай, Америка! через торрент piratbit.org

Размер: 745 MB | Добавлен: 6 лет 9 мес. назад | Торрент скачан:25 раз
Смотреть онлайн | Скачать   

10-12-2015 09:02 Прощай, Америка! Скачать торрент  

Прощай, Америка!
Страна: СССР
Производство: Мосфильм

Жанр: политический памфлет
Год выпуска: 1951
Продолжительность: 01:09:55

Перевод: Не требуется
Cубтитры: нет
Оригинальная аудиодорожка: русский

Режиссер: Александр Довженко, Юлия Солнцева

В ролях:
Лилия Гриценко, Николай Гриценко, Александр Полинский, Григорий Кириллов, Вячеслав Гостинский, Никита Кондратьев, Юрий Любимов, Янис Осис, Людмила Шагалова, Григорий Шпигель, Вера Орлова...
Полный список актёров

Описание:
В основе сценария последней незаконченной режиссерской работы Александра Петровича Довженко - книга 1949 года американской журналистки Аннабеллы Бюкар "Правда об американских дипломатах", разоблачающая нравы в американском посольстве в Москве.

Источник: DVD5 R5
Качество видео: DVDRip
Формат видео: AVI

Видео: 704x528 (4:3), 25 fps, XviD ~ 1352 kbps avg, 0.145 bit/pixel
Аудио: 48 kHz, MP3 2.0, 128 kbps

Раздача от:
Общее
Полное имя : Proshhay,Amerika!1951.DVDRip-745_[New-team]_by_AVP_Studio.avi
Формат : AVI
Формат/Информация : Audio Video Interleave
Размер файла : 745 Мбайт
Продолжительность : 1 ч. 9 м.
Общий поток : 1489 Кбит/сек
Программа кодирования : VirtualDubMod 1.5.10.3 | www.virtualdub-fr.org || (build 2550/release)
Библиотека кодирования : VirtualDubMod build 2550/release

Видео
Идентификатор : 0
Формат : MPEG-4 Visual
Профиль формата : Advanced Simple@L5
Параметр BVOP формата : 1
Параметр QPel формата : Нет
Параметр GMC формата : Без точки перехода
Параметр матрицы формата : Выборочная
Идентификатор кодека : XVID
Идентификатор кодека/Подсказка : XviD
Продолжительность : 1 ч. 9 м.
Битрейт : 1352 Кбит/сек
Ширина : 704 пикселя
Высота : 528 пикселей
Соотношение сторон : 4:3
Частота кадров : 25,000 кадров/сек
Цветовое пространство : YUV
Субдискретизация насыщенности : 4:2:0
Битовая глубина : 8 бит
Тип развёртки : Прогрессивная
Метод сжатия : С потерями
Бит/(Пиксели*Кадры) : 0.145
Размер потока : 676 Мбайт (91%)
Библиотека кодирования : XviD 1.2.1 (UTC 2008-12-04)

Аудио
Идентификатор : 1
Формат : MPEG Audio
Версия формата : Version 1
Профиль формата : Layer 3
Идентификатор кодека : 55
Идентификатор кодека/Подсказка : MP3
Продолжительность : 1 ч. 9 м.
Вид битрейта : Постоянный
Битрейт : 128 Кбит/сек
Каналы : 2 канала
Частота : 48,0 КГц
Метод сжатия : С потерями
Размер потока : 64,0 Мбайт (9%)
Выравнивание : Соединение по промежуткам
Продолжительность промежутка : 40 мс. (1,00 видеокадр)
Время предзагрузки промежутка : 504 мс.
Библиотека кодирования : LAME3.99r
Настройки программы : -m s -V 4 -q 2 -lowpass 17 -b 128



Скачать Прощай, Америка! через торрент http://s018.radikal.ru/i507/1512/9c/300fa0a2b7a5.png Скачать, смотреть онлайн Прощай, Америка! бесплантно в хорошем качестве Описание:В основе сценария последней незаконченной режиссерской работы Александра Петровича Довженко - книга 1949 года американской ... 5 10 1
Торрент: Зарегистрирован [2015-12-10 09:02] · скачан: 25 раз
Статус: √ проверено
Размер: 745 MB
Как cкачать? Как скачать Прощай, Америка! через торрент | UTorrent

% Раздел Тема Автор DL S | L
Кино СССР [ 1.09 GB ] Прощай, Америка! | | DVDRip-AVC от AVP Studio AVP Studio Скачать
1 | 0
Кино СССР [ 1.09 GB ] Прощай, Америка! | | DVDRip от AVP Studio AVP Studio Скачать
1 | 0

28-11-2019 20:33  


Отключить вcю реклaмy на сайте, в т.ч. и в плеере онлайн просмотра!

    Дорогой пользователь! Огромная просьба, поблагодарите релизера, оцените раздачу и оставьте свои комментарий, если Вы скачали Прощай, Америка! через торрент бесплатно!!
    Комментировать посты могут только пользователи прошедшие не сложную регистрацию
    Показать сообщения:    


    Прощай, Америка! через торрент
    Скачать бесплатно Прощай, Америка!
    Прощай, Америка! скачать торрент
    Прощай, Америка! смотреть онлайн
    Cкачать фильм Прощай, Америка! бесплатно
    Прощай, Америка! скачать торрент в хорошем качестве
    Прощай, Америка! смотреть онлайн бесплатно в хорошем качестве
    Вы не можете начинать темы
    Вы не можете отвечать на сообщения
    Вы не можете редактировать свои сообщения
    Вы не можете удалять свои сообщения
    Вы не можете голосовать в опросах
    Вы не можете прикреплять файлы к сообщениям
    Вы можете скачивать файлы