Присоединяйтесь к нам в Telegram!, здесь всегда актуальный адрес сайта, оперативная поддержка и многое другое!!

>

5.9

iTunes

7.4

iTunes

9.4

1 сезон

1

7.4

2 сезон

7.2

iTunes

7.3

1 сезон

13

6.1

iTunes

8.3

Пиратка

30

ULTIMATE

pack

9.9

Лицензия

ВАЖНО

ИГРА 18+

pack

7.3

RePack

MK11

7.7

RePack

jed

7.8

RePack

fifa19

8.5

RePack

RDR2

RePack

NEED FOR SPEED™ PAYBACK

5 сезон

9 сезон

Бесстыжие 9 сезон

Все сериалы

все сериалы на PB.wtf

RePack

FAR CRY 5

Anonymous, добрый вечер, мы катастрофически не успеваем собрать деньги на оплату серверов, помогите нам пожалуйста 5,10,15р., для нас важна любая помощь . В качестве благодарности мы отключим Вам всю рекламу на сайте (укажите свой ник в строку Ваше имя)!

×
  
Magnet ссылка

Опасная встреча / Rendez-Vous (Антуанетта Бёмер) [2015, триллер, HDRip, Любительский (двухголосый)[Sunshine Studio] piratbit.org

Опасная встреча через торрент piratbit.org

Размер: 1.45 GB | Добавлен: 5 лет 11 мес. назад | Торрент скачан:163 раза
Смотреть онлайн Опасная встреча | Скачать    Ребята, помогите собрать деньги на оплату серверов!!!

11-12-2015 13:31 Опасная встреча Скачать торрент  


Опасная встреча / Rendez-Vous


ИНФОРМАЦИЯ:
Год выпуска:2015
Страна: Нидерланды
Жанр: триллер
Продолжительность: 01:39:56
Перевод: Любительский (двухголосый)[Sunshine Studio]
Режиссер: Антуанетта Бёмер

В Ролях:


Пьер Буланжер (Michel), Марк ван Эувен (Eric), Питер Пол Мюллер (Peter), Лоэс Хаверкорт (Simone), Ева Дёйвестейн (Rita), Дженнифер Хоффман (Lian), Тамар Баруч (Schoolmistress), Роза Рютен (Helena), Корентен Лобе (Man in bricolage), Bobby van Vleuten (Bastian), Pieter van Terheijden (Bernard), Evi van der Laken (Suzanne)

Описание:
Симона и Эрик унаследовали старинное поместье во Франции. Они решают, что это прекрасная возможность начать новую жизнь и вдохнуть свежее дыхание в свои отношения. Эрик сразу загорается идеей устроить в поместье отель, а Симона скучает и вскоре оказывается в постели соседа - красивого молодого человека. И пока муж строит отель и грандиозные планы, жена с соседом занимаются сексом. Но рано или поздно все заканчивается, и все тайное становится явным...

  • Мировая премьера:4 июня 2015

    ТЕХ.ДАННЫЕ:
    Качество: HDRip
    Формат: AVI
    Видео: XviD, 720x304 (2.35:1), 1864 kbps, 24 fps, 0,355 bpp
    Аудио: AC3 / 2.0 / 48 kHz / 128 kbps / 16 bit


    General
    Complete name : D:\Торенты\0pa7naYa.Vs3re4a.2015.L2.HDRip.avi
    Format : AVI
    Format/Info : Audio Video Interleave
    File size : 1.45 GiB
    Duration : 1h 39mn
    Overall bit rate : 2 084 Kbps
    Writing application : VirtualDubMod 1.5.10.3 | www.virtualdub-fr.org || (build 2550/release)
    Writing library : VirtualDubMod build 2550/release

    Video
    ID : 0
    Format : MPEG-4 Visual
    Format profile : Advanced Simple@L5
    Format settings, BVOP : 2
    Format settings, QPel : No
    Format settings, GMC : No warppoints
    Format settings, Matrix : Default (MPEG)
    Codec ID : XVID
    Codec ID/Hint : XviD
    Duration : 1h 39mn
    Bit rate : 1 865 Kbps
    Width : 720 pixels
    Height : 304 pixels
    Display aspect ratio : 2.35:1
    Frame rate : 24.000 fps
    Color space : YUV
    Chroma subsampling : 4:2:0
    Bit depth : 8 bits
    Scan type : Progressive
    Compression mode : Lossy
    Bits/(Pixel*Frame) : 0.355
    Stream size : 1.30 GiB (89%)
    Writing library : XviD 1.2.1 (UTC 2008-12-04)

    Audio
    ID : 1
    Format : AC-3
    Format/Info : Audio Coding 3
    Mode extension : CM (complete main)
    Codec ID : 2000
    Duration : 1h 39mn
    Bit rate mode : Constant
    Bit rate : 128 Kbps
    Channel(s) : 2 channels
    Channel positions : Front: L R
    Sampling rate : 48.0 KHz
    Bit depth : 16 bits
    Compression mode : Lossy
    Stream size : 91.5 MiB (6%)
    Alignment : Split accross interleaves
    Скриншоты:

    © Оформление by .::Ворон::.
    piratbit.org



  • Скачать Опасная встреча через торрент https://pic1.kartinco.top/images/61/ordi9.jpg Скачать, смотреть онлайн Опасная встреча бесплантно в хорошем качестве Описание: Симона и Эрик унаследовали старинное поместье во Франции. Они решают, что это прекрасная возможность начать новую жизнь и ... 10 10 7
    Торрент: Зарегистрирован [2015-12-11 13:31] · скачан: 163 раз
    Статус: T временная
    Размер: 1.45 GB
    Как cкачать? Как скачать Опасная встреча через торрент | UTorrent

    % Раздел Тема Автор DL S | L
    T Фильмы [HD 720p, 1080p] (Звук Cam, VO, DVO) [ 9.21 GB ] Опасная встреча / Rendez-Vous [2015 BDRip 1080p Любительский [Sunshine Studio] Ворон Скачать
    1 | 0
    T Фильмы 2015 (Звук TS, Cam, VO, DVO) [ 1.47 GB ] Опасная встреча / Rendez-Vous [2015 DVDRip VO [Lord32x] Ворон Скачать
    1 | 0

    28-11-2019 20:33  

    Отключить всю рекламу на сайте

      Дорогой пользователь! Огромная просьба, поблагодарите релизера, оцените раздачу и оставьте свои комментарий, если Вы скачали Опасная встреча через торрент бесплатно!
      Комментировать посты могут только пользователи прошедшие не сложную регистрацию
      Показать сообщения:    

      Опасная встреча через торрент
      Скачать бесплатно Опасная встреча
      Опасная встреча скачать торрент
      Опасная встреча смотреть онлайн
      Cкачать фильм Опасная встреча бесплатно
      Опасная встреча скачать торрент в хорошем качестве
      Опасная встреча смотреть онлайн бесплатно в хорошем качестве


      Вы не можете начинать темы
      Вы не можете отвечать на сообщения
      Вы не можете редактировать свои сообщения
      Вы не можете удалять свои сообщения
      Вы не можете голосовать в опросах
      Вы не можете прикреплять файлы к сообщениям
      Вы можете скачивать файлы