Ссылка на приватное зеркало нашего сайта всего за 1$. Внимание количество ограничено!!!

2 сезон

iTunes

1 сезон

1

iTunes

iTunes

iTunes

1 сезон

RePack

30

ИГРА 18+

pack

ВАЖНО

!!Акция!!

Alien_RageХит недели

RePack

MK11
pack

Забери бонус

RePack

jed

!!Акция!!

Alien_Rage

RePack

fifa19

RePack

Assassins Creed: Odyssey

RePack

NEED FOR SPEED™ PAYBACK

4 сезон

9 сезон

Бесстыжие 9 сезон

Все сериалы

все сериалы на PB.wtf

RePack

FAR CRY 5
  

Супермозг / Le Cerveau (Жерар Ури) [1969 г., Комедия, криминал, приключения, BDRip (1080p), Профессиональный (двухголосый)] piratbit.org

Супермозг через торрент piratbit.org

Размер: 9.27 GB | Добавлен: 4 года 10 мес. назад | Торрент скачан:33 раза
Скачать  

14-12-2015 14:51 Супермозг Скачать торрент  

Супермозг / Le Cerveau
Год выпуска: 1969
Страна: Франция, Италия
Жанр: Комедия, криминал, приключения
Продолжительность: 01:54:34
Перевод: Профессиональный (двухголосый)+ французский
Субтитры: Русские, английские, французские

Режиссер: Жерар Ури

В ролях: Жан-Поль Бельмондо, Бурвиль, Дэвид Найвен, Эли Уоллах, Сильвия Монти, Раймон Жером, Жак Балютен, Анри Атталь, Ив Барсак, Жак Сирон, Робер Дальбан, Марио Давид, Рауль Дельфосс, Томми Дагган, Генри Женес, Софи Гримальди, Фернан Гио, Макс Монтавон, Патрик Прежан, Джон Рико, Тревор А. Стефенс, Арч Тейлор, Доминик Зарди, Роланд Монк, Жан-Франсуа Барр, Миша Байяр, Мик Бессон, Ги Боннафу, Джерри Броувер, Марсель Шарве, Луиджи Кортезе, Даниэль Кроэм, Чарльз Далин, Ги Делорм, Жан Дроз, Мишель Гарлэнд, Жерар Эрнандес, Боб Ингарао, Гордон Лэси, Боб Лерик, Жан Минизини, Рэймонд Пирсон, Жан-Пьер Позье, Дуглас Рид, Пьер Руссель

Описание: Слегка абсурдистская комедия с молодым, обаятельным Бельмондо и великолепным, как всегда, Бурвилем. Французское качество и ностальгия... Обаятельный мошенник Артур, с помощью друга бежавший из тюрьмы, решил ограбить спецвагон поезда Париж-Брюссель. В том же поезде находился знаменитый преступник «Супермозг», который тоже хотел заполучить миллионы, находящиеся в спецвагоне…

Качество: BDRip (1080p)
Формат: MKV
Видео кодек: AVC
Аудио кодек: AC3
Видео: MPEG-4 AVC, (1920x1080),11200 Кбит/с, 23.976 кадра/сек
Аудио#1: AC3, 2 ch,192 kbps (Rus) 48.0 KHz Профессиональный двухголосый
Аудио#2: AC3, 2 ch,192 kbps (France) 48.0 KHz французский
скриншот   скриншот   скриншот  

Тип потока: Видео
Длительность: 01:54:34
Кодек: AVC
Кодек/описание: Advanced Video Codec
Кодек/профиль: High@L4.1
Кодек/ID: V_MPEG4/ISO/AVC
Кодек/CABAC: Yes
Кодек/ReFrames: 3 frames
Размеры изображения: 1920 x 1080 (16:9)
Частота кадров: 24.000 fps
Частота кадров/тип: Constant
Размер потока: 8.78 GiB (95%)
Битрейт: 11.2 Mbps
Библиотека кодирования: x264 core 116 r2019M 9cc407d
Цветовое пространство: YUV
Тип развёртки: Progressive
Колориметрия: 4:2:0
Глубина: 8 bits

Тип потока: Звук #1
Язык: Russian
Название: DVO
Длительность: 01:54:34.874
Кодек: AC-3
Кодек/описание: Audio Coding 3
Кодек/ID: A_AC3
Частота дискретизации: 48.0 KHz
Каналов: 2 channels
Битрейт: 192 Kbps
Битрейт/тип: Constant
Размер потока: 157 MiB (2%)
Глубина: 16 bits
Метод сжатия: Lossy

Тип потока: Звук #2
Язык: French
Название: Original
Длительность: 01:54:34.874
Кодек: AC-3
Кодек/описание: Audio Coding 3
Кодек/ID: A_AC3
Частота дискретизации: 48.0 KHz
Каналов: 2 channels
Битрейт: 192 Kbps
Битрейт/тип: Constant
Размер потока: 157 MiB (2%)
Глубина: 16 bits
Метод сжатия: Lossy
:
Тип потока: Субтитры #1
Язык: Russian
Формат: UTF-8
Формат/подробно: UTF-8 Plain Text
:
Тип потока: Субтитры #2
Язык: French
Формат: UTF-8
Формат/подробно: UTF-8 Plain Text
Название: forced
:
Тип потока: Субтитры #3
Язык: French
Формат: UTF-8
Формат/подробно: UTF-8 Plain Text
:
Тип потока: Субтитры #4
Язык: English
Формат: UTF-8
Формат/подробно: UTF-8 Plain Text
Название: forced
:
Тип потока: Субтитры #5
Язык: English
Формат: UTF-8
Формат/подробно: UTF-8 Plain Text

piratbit.org
K-Lexx- писал(а):

Отсутствие в МИ настроек кодирования + не обрезаны черные полосы. До появления рипа лучшего качества.



Скачать Супермозг через торрент http://pic.kartinco.top/images/11/4f8gu.jpg Скачать фильм Супермозг через торрент бесплантно в хорошем качестве Описание: Слегка абсурдистская комедия с молодым, обаятельным Бельмондо и великолепным, как всегда, Бурвилем. Французское качество и ... 8.7 10 7
Торрент: Зарегистрирован [2015-12-14 14:51] · скачан: 33 раз
Статус: # сомнительно
Размер: 9.27 GB
Как cкачать? Как скачать Супермозг через торрент | qTorrent

% Раздел Тема Автор DL S | L
Классика зарубежного кино [ 5.77 GB ] Супермозг / Le Cerveau [1969 BDRip ] Бумер Скачать
4 | 0
Фильмы (Blu-ray, BD-Remux, HDDVD) [ 23.38 GB ] Супермозг / Le cerveau [1969 BDRemux 1080p] [DVO] + [Orig] + 3x[Sub] killermax2013 Скачать
1 | 0

28-11-2019 20:33  

Отключить всю рекламу на сайте

15-12-2015 01:00 Супермозг Скачать торрент  

Считаю, что на подобные произведения, ставшие классикой, просто необходимо показать рейтинги, тем более они низкими не бывают ;).piratbit.org



15-12-2015 02:11 Супермозг Скачать торрент  

mrAmerica, piratbit.org



    Дорогой пользователь! Огромная просьба, поблагодарите релизера, оцените раздачу и оставьте свои комментарий, если Вы скачали Супермозг через торрент бесплатно! Внесите свою лепту в развитие PiratBit!
    Комментировать посты могут только пользователи прошедшие не сложную регистрацию
    Показать сообщения:    

    Супермозг через торрент
    Скачать бесплатно Супермозг
    Супермозг скачать торрент
    Супермозг смотреть онлайн
    Cкачать фильм Супермозг бесплатно
    Супермозг скачать торрент в хорошем качестве
    Супермозг смотреть онлайн бесплатно в хорошем качестве


    Вы не можете начинать темы
    Вы не можете отвечать на сообщения
    Вы не можете редактировать свои сообщения
    Вы не можете удалять свои сообщения
    Вы не можете голосовать в опросах
    Вы не можете прикреплять файлы к сообщениям
    Вы можете скачивать файлы