Присоединяйтесь к нам в Telegram!, здесь всегда актуальный адрес сайта, оперативная поддержка и многое другое!!

>

5.9

iTunes

7.4

iTunes

9.4

1 сезон

1

7.4

2 сезон

7.2

iTunes

7.3

1 сезон

13

6.1

iTunes

8.3

Пиратка

30

ULTIMATE

pack

9.9

Лицензия

ВАЖНО

ИГРА 18+

pack

7.3

RePack

MK11

7.7

RePack

jed

7.8

RePack

fifa19

8.5

RePack

RDR2

RePack

NEED FOR SPEED™ PAYBACK

5 сезон

9 сезон

Бесстыжие 9 сезон

Все сериалы

все сериалы на PB.wtf

RePack

FAR CRY 5

Anonymous, добрый вечер, мы катастрофически не успеваем собрать деньги на оплату серверов, помогите нам пожалуйста 5,10,15р., для нас важна любая помощь . В качестве благодарности мы отключим Вам всю рекламу на сайте (укажите свой ник в строку Ваше имя)!

×
  
Magnet ссылка

Приговоренные / Отбросы / Condemned (Eli Morgan Gesner) [2015, ужасы, HDRip, Любительский (двухголосый) [Ох! Студия и Ворон] piratbit.org

Приговоренные через торрент piratbit.org

Размер: 1.46 GB | Добавлен: 5 лет 11 мес. назад | Торрент скачан:198 раз
Смотреть онлайн Приговоренные | Скачать    Ребята, помогите собрать деньги на оплату серверов!!!

16-12-2015 14:57 Приговоренные Скачать торрент  


Приговоренные / Отбросы / Condemned


ИНФОРМАЦИЯ:
Год выпуска:2015
Страна: США, Caliber Media Company
Жанр: ужасы
Продолжительность: 01:23:09
Перевод: Любительский (двухголосый) [Ох! Студия и Ворон]
Режиссер: Eli Morgan Gesner

В Ролях:


Лидия Хёрст (Tess), Майкл Гилл (Senior CDC Agent), Джонни Месснер (Gault), Джон Абрахамс (Vince), Ронен Рубеинштейн (Dante), Дилан Пенн (Maya), Майкл Дрэйер (Marin), Ки Хо (Pop Star), Женевьев Хадсон-Прайс (Alexa), Перри Юнг (Cookie), Майкл ДеМелло (Murphy), Энтони Чисхолм (Shynola)

Описание:
В токсичных отходах, мусоре и нечистотах, в богом забытом здании на Манхэттене в Нижнем Ист-Сайде, рождается страшный вирус. Он превращает местных обитателей в кровожадных убийц и, для оставшихся, единственным избавлением от кошмара станет только смерть...

  • Мировая премьера:13 ноября 2015

    ТЕХ.ДАННЫЕ:
    Качество: HDRip
    Формат: AVI
    Видео: XviD, 720x400 (16:9), 1818 kbps, 23,976 fps, 0,263 bpp
    Аудио №1: AC3 / 2.0 / 48 kHz / 192 kbps / Русский
    Аудио №2: AC3 / 5.1 / 48 kHz / 384 kbps / английский


    General
    Complete name : D:\Торенты\Prigovorenye.2015.L2.HDRip.1.46GB.Freerutor.com.avi
    Format : AVI
    Format/Info : Audio Video Interleave
    File size : 1.46 GiB
    Duration : 1h 23mn
    Overall bit rate : 2 505 Kbps
    Writing application : VirtualDubMod 1.5.10.2 (build 2540/release)
    Writing library : VirtualDubMod build 2540/release

    Video
    ID : 0
    Format : MPEG-4 Visual
    Format profile : Advanced Simple@L5
    Format settings, BVOP : 2
    Format settings, QPel : No
    Format settings, GMC : No warppoints
    Format settings, Matrix : Default (MPEG)
    Codec ID : XVID
    Codec ID/Hint : XviD
    Duration : 1h 23mn
    Bit rate : 1 819 Kbps
    Width : 720 pixels
    Height : 400 pixels
    Display aspect ratio : 16:9
    Frame rate : 23.976 fps
    Color space : YUV
    Chroma subsampling : 4:2:0
    Bit depth : 8 bits
    Scan type : Progressive
    Compression mode : Lossy
    Bits/(Pixel*Frame) : 0.263
    Stream size : 1.06 GiB (73%)
    Writing library : XviD 1.2.1 (UTC 2008-12-04)

    Audio #1
    ID : 1
    Format : AC-3
    Format/Info : Audio Coding 3
    Mode extension : CM (complete main)
    Codec ID : 2000
    Duration : 1h 23mn
    Bit rate mode : Constant
    Bit rate : 192 Kbps
    Channel(s) : 2 channels
    Channel positions : Front: L R
    Sampling rate : 48.0 KHz
    Bit depth : 16 bits
    Compression mode : Lossy
    Stream size : 114 MiB (8%)
    Alignment : Split accross interleaves

    Audio #2
    ID : 2
    Format : AC-3
    Format/Info : Audio Coding 3
    Mode extension : CM (complete main)
    Codec ID : 2000
    Duration : 1h 23mn
    Bit rate mode : Constant
    Bit rate : 384 Kbps
    Channel(s) : 6 channels
    Channel positions : Front: L C R, Side: L R, LFE
    Sampling rate : 48.0 KHz
    Bit depth : 16 bits
    Compression mode : Lossy
    Stream size : 228 MiB (15%)
    Alignment : Split accross interleaves
    Скриншоты:

    © Оформление by .::Ворон::.
    piratbit.org



  • Скачать Приговоренные через торрент https://pic1.kartinco.top/images/61/ordi9.jpg Скачать, смотреть онлайн Приговоренные бесплантно в хорошем качестве Описание: В токсичных отходах, мусоре и нечистотах, в богом забытом здании на Манхэттене в Нижнем Ист-Сайде, рождается страшный вирус. Он ... 8.4 10 9
    Торрент: Зарегистрирован [2015-12-16 14:57] · скачан: 198 раз
    Статус: T временная
    Размер: 1.46 GB
    Как cкачать? Как скачать Приговоренные через торрент | UTorrent

    % Раздел Тема Автор DL S | L
    T Фильмы (WEB-DL 720p, 1080p) [ 2.7 GB ] Приговоренные / Отбросы / Condemned [2015 WEB-DL 720p Любительский [Ох! Студия и Ворон] Ворон Скачать
    1 | 0

    28-11-2019 20:33  

    Отключить всю рекламу на сайте

      Дорогой пользователь! Огромная просьба, поблагодарите релизера, оцените раздачу и оставьте свои комментарий, если Вы скачали Приговоренные через торрент бесплатно!
      Комментировать посты могут только пользователи прошедшие не сложную регистрацию
      Показать сообщения:    

      Приговоренные через торрент
      Скачать бесплатно Приговоренные
      Приговоренные скачать торрент
      Приговоренные смотреть онлайн
      Cкачать фильм Приговоренные бесплатно
      Приговоренные скачать торрент в хорошем качестве
      Приговоренные смотреть онлайн бесплатно в хорошем качестве


      Вы не можете начинать темы
      Вы не можете отвечать на сообщения
      Вы не можете редактировать свои сообщения
      Вы не можете удалять свои сообщения
      Вы не можете голосовать в опросах
      Вы не можете прикреплять файлы к сообщениям
      Вы можете скачивать файлы