Присоединяйтесь к нам в Telegram!, здесь всегда актуальный адрес сайта, оперативная поддержка и многое другое!!

>

5.9

iTunes

7.4

iTunes

9.4

1 сезон

1

7.4

2 сезон

7.2

iTunes

7.3

1 сезон

13

6.1

iTunes

8.3

GOG

30

ULTIMATE

pack

9.9

Лицензия

ВАЖНО

ИГРА 18+

pack

7.3

RePack

MK11

7.7

RePack

jed

7.8

RePack

fifa19

8.5

RePack

RDR2

RePack

NEED FOR SPEED™ PAYBACK

5 сезон

9 сезон

Бесстыжие 9 сезон

Все сериалы

все сериалы на PB.wtf

RePack

FAR CRY 5

Anonymous, добрый день, мы катастрофически не успеваем собрать деньги на оплату серверов, помогите нам пожалуйста 5,10,15р., для нас важна любая помощь . В качестве благодарности мы отключим Вам всю рекламу на сайте (укажите свой ник в строку Ваше имя)!

×
  
Magnet ссылка

Экспериментатор / Experimenter (Майкл Алмерейда / Michael Almereyda) [2015, США, драма, биография, история, WEB-DLRip] DVO [Ozz.tv] piratbit.org

Экспериментатор через торрент piratbit.org

Размер: 1.37 GB | Добавлен: 5 лет 11 мес. назад | Торрент скачан:151 раз
Смотреть онлайн Экспериментатор | Скачать    Ребята, помогите собрать деньги на оплату серверов!!!

19-12-2015 03:52 Экспериментатор Скачать торрент  

Экспериментатор / Experimenter
«Иллюзия готовит почву. Обман раскрывает правду»


  • Год выпуска: 2015
  • Страна: США
  • Жанр: драма, биография, история
  • Продолжительность: 01:38:03
  • Перевод: Любительский (двухголосый) [Ozz.tv]

  • Режиссер: Майкл Алмерейда / Michael Almereyda
  • В ролях:

    Вайнона Райдер (Sasha Menkin Milgram), Тэрин Мэннинг (Mrs. Lowe), Джон Легуизамо (Taylor), Антон Ельчин (Rensaleer), Питер Сарсгаард (Stanley Milgram), Келлан Латс (William Shatner), Лори Сингер (Florence Asch), Энтони Эдвардс (Miller), Деннис Хейсбёрт (Ossie Davis), Вонди Куртис-Холл (Curtis), Том Бейтман (Cavett), Джош Хэмилтон (Tom Shannon)


  • Знаменитый психолог Стенли Милграм в 1961 году провел ряд радикальных поведенческих экспериментов, в процессе которых проверялась готовность обычных людей подчиняться власти.
  • Рейтинг:



  • Качество: WEB-DLRip
  • Формат: :AVI
  • Видео кодек: XviD
  • Аудио кодек: AC3
  • Видео: 720x400 (16:9), 1804 kbps, 23,976 fps, 0,261 bpp
  • Аудио: 2.0 / 44 kHz / 192 kbps / 16 bit
  • Релиз от: GEKADOL

    Код:

    General
    Complete name                            : G:\EcsPer1mentat0r.2015.P.WEB-DLRip.1400MB.avi
    Format                                   : AVI
    Format/Info                              : Audio Video Interleave
    File size                                : 1.37 GiB
    Duration                                 : 1h 38mn
    Overall bit rate                         : 2 006 Kbps
    Writing application                      : VirtualDubMod 1.5.10.2 (build 2540/release)
    Writing library                          : VirtualDubMod build 2540/release

    Video
    ID                                       : 0
    Format                                   : MPEG-4 Visual
    Format profile                           : Advanced Simple@L5
    Format settings, BVOP                    : 2
    Format settings, QPel                    : No
    Format settings, GMC                     : No warppoints
    Format settings, Matrix                  : Default (H.263)
    Muxing mode                              : Packed bitstream
    Codec ID                                 : XVID
    Codec ID/Hint                            : XviD
    Duration                                 : 1h 38mn
    Bit rate                                 : 1 804 Kbps
    Width                                    : 720 pixels
    Height                                   : 400 pixels
    Display aspect ratio                     : 16:9
    Frame rate                               : 23.976 fps
    Color space                              : YUV
    Chroma subsampling                       : 4:2:0
    Bit depth                                : 8 bits
    Scan type                                : Progressive
    Compression mode                         : Lossy
    Bits/(Pixel*Frame)                       : 0.261
    Stream size                              : 1.24 GiB (90%)
    Writing library                          : XviD 66

    Audio
    ID                                       : 1
    Format                                   : AC-3
    Format/Info                              : Audio Coding 3
    Mode extension                           : CM (complete main)
    Codec ID                                 : 2000
    Duration                                 : 1h 38mn
    Bit rate mode                            : Constant
    Bit rate                                 : 192 Kbps
    Channel(s)                               : 2 channels
    Channel positions                        : Front: L R
    Sampling rate                            : 44.1 KHz
    Bit depth                                : 16 bits
    Compression mode                         : Lossy
    Stream size                              : 135 MiB (10%)
    Alignment                                : Split accross interleaves
    Interleave, duration                     : 42 ms (1.00 video frame)
    Interleave, preload duration             : 500 ms




    Скриншоты:



    piratbit.org



  • Скачать Экспериментатор через торрент http://i67.fastpic.ru/big/2015/1219/e4/a6ba56bb396acdf42c2aca5e7d501ee4.jpg Скачать, смотреть онлайн Экспериментатор бесплантно в хорошем качестве qw.png Знаменитый психолог Стенли Милграм в 1961 году провел ряд радикальных поведенческих экспериментов, в процессе которых проверялась ... 7.7 10 10
    Торрент: Зарегистрирован [2015-12-19 03:52] · скачан: 151 раз
    Статус: T временная
    Размер: 1.37 GB
    Как cкачать? Как скачать Экспериментатор через торрент | UTorrent

    % Раздел Тема Автор DL S | L
    T Фильмы 2015 (Звук TS, Cam, VO, DVO) [ 1.46 GB ] Экспериментатор / Experimenter [2015 биография история BDRip] DVO [Ozz.tv] Twi7ter Скачать
    1 | 0
    T Фильмы (WEB-DL 720p, 1080p) [ 2.96 GB ] Экспериментатор / Experimenter [2015 биография история WEB-DL 720p] DVO [Ozz.tv] GEKADOL Скачать
    1 | 0

    28-11-2019 20:33  

    Отключить всю рекламу на сайте

    19-12-2015 17:49 Экспериментатор Скачать торрент  

    как оно?piratbit.org



      Дорогой пользователь! Огромная просьба, поблагодарите релизера, оцените раздачу и оставьте свои комментарий, если Вы скачали Экспериментатор через торрент бесплатно!
      Комментировать посты могут только пользователи прошедшие не сложную регистрацию
      Показать сообщения:    

      Экспериментатор через торрент
      Скачать бесплатно Экспериментатор
      Экспериментатор скачать торрент
      Экспериментатор смотреть онлайн
      Cкачать фильм Экспериментатор бесплатно
      Экспериментатор скачать торрент в хорошем качестве
      Экспериментатор смотреть онлайн бесплатно в хорошем качестве


      Вы не можете начинать темы
      Вы не можете отвечать на сообщения
      Вы не можете редактировать свои сообщения
      Вы не можете удалять свои сообщения
      Вы не можете голосовать в опросах
      Вы не можете прикреплять файлы к сообщениям
      Вы можете скачивать файлы