Лицензия

MVO

1

1 сезон

Лицензия

Лицензия

13

MVO

1 сезон

Deluxe Edition

pack

Рекомендуем

30

Repack

ВАЖНО

ВАЖНО

Ghostwire

RePack

jed

RePack

fifa19

RePack

RDR2

RePack

NEED FOR SPEED™ PAYBACK

RePack

Кинопоиск HD

 Острые козырьки 6 сезон

6 сезон

FAR CRY 6

RePack

Лицензия

MVO

1

1 сезон

1 сезон

Лицензия

  

Джамбул (Ефим Дзиган) [1952, СССР, драма, DVDRip от AVP Studio]

Джамбул через торрент piratbit.org

Размер: 743 MB | Добавлен: 6 лет 9 мес. назад | Торрент скачан:15 раз
Смотреть онлайн Джамбул | Скачать   

20-12-2015 08:42 Джамбул Скачать торрент  

Джамбул
Страна: СССР
Производство: Алма-Атинская киностудия

Жанр: драмадрама
Год выпуска: 1952
Продолжительность: 01:19:49

Перевод: Не требуется
Cубтитры: нет
Оригинальная аудиодорожка: русский

Режиссер: Ефим Дзиган

В ролях:
Шакен Айманов, Курманбек Жандарбеков, Г. Курмангалиев, Герман Хованов, Капан Бадыров, Х. Абугалиева, Кененбай Кожабеков...
Полный список актёров

Описание:
О жизни и творчестве великого акына казахского народа Джамбула Джабаева.

Источник: DVD5 R5
Качество видео: DVDRip
Формат видео: AVI

Видео: 640x480 (4:3), 25 fps, XviD ~ 1164 kbps avg, 0.152 bit/pixel
Аудио: 48 kHz,MP3 2.0, 128 kbps

Раздача от:
Общее
Полное имя : Dzhambul.1952.DVDRip-745_[New-team]_by_AVP_Studio.avi
Формат : AVI
Формат/Информация : Audio Video Interleave
Размер файла : 743 Мбайт
Продолжительность : 1 ч. 19 м.
Общий поток : 1302 Кбит/сек
Программа кодирования : VirtualDubMod 1.5.10.3 | www.virtualdub-fr.org || (build 2550/release)
Библиотека кодирования : VirtualDubMod build 2550/release

Видео
Идентификатор : 0
Формат : MPEG-4 Visual
Профиль формата : Advanced Simple@L5
Параметр BVOP формата : 1
Параметр QPel формата : Нет
Параметр GMC формата : Без точки перехода
Параметр матрицы формата : Выборочная
Идентификатор кодека : XVID
Идентификатор кодека/Подсказка : XviD
Продолжительность : 1 ч. 19 м.
Битрейт : 1164 Кбит/сек
Ширина : 640 пикселей
Высота : 480 пикселей
Соотношение сторон : 4:3
Частота кадров : 25,000 кадров/сек
Цветовое пространство : YUV
Субдискретизация насыщенности : 4:2:0
Битовая глубина : 8 бит
Тип развёртки : Прогрессивная
Метод сжатия : С потерями
Бит/(Пиксели*Кадры) : 0.152
Размер потока : 665 Мбайт (89%)
Библиотека кодирования : XviD 1.2.1 (UTC 2008-12-04)

Аудио
Идентификатор : 1
Формат : MPEG Audio
Версия формата : Version 1
Профиль формата : Layer 3
Идентификатор кодека : 55
Идентификатор кодека/Подсказка : MP3
Продолжительность : 1 ч. 19 м.
Вид битрейта : Постоянный
Битрейт : 128 Кбит/сек
Каналы : 2 канала
Частота : 48,0 КГц
Метод сжатия : С потерями
Размер потока : 73,1 Мбайт (10%)
Выравнивание : Соединение по промежуткам
Продолжительность промежутка : 40 мс. (1,00 видеокадр)
Время предзагрузки промежутка : 504 мс.
Библиотека кодирования : LAME3.99r
Настройки программы : -m s -V 4 -q 2 -lowpass 17 -b 128



Скачать Джамбул через торрент http://s020.radikal.ru/i713/1512/ec/a8edb4a84204.png Скачать, смотреть онлайн Джамбул бесплантно в хорошем качестве Описание:О жизни и творчестве великого акына казахского народа Джамбула Джабаева. Источник: DVD5 ... 10 10 2
Торрент: Зарегистрирован [2015-12-20 08:42] · скачан: 15 раз
Статус: √ проверено
Размер: 743 MB
Как cкачать? Как скачать Джамбул через торрент | UTorrent

% Раздел Тема Автор DL S | L
Кино СССР [ 1.09 GB ] Джамбул | | DVDRip-AVC от AVP Studio AVP Studio Скачать
1 | 0
Кино СССР [ 1.09 GB ] Джамбул | | DVDRip от AVP Studio AVP Studio Скачать
1 | 0

28-11-2019 20:33  

Отключить вcю реклaмy на сайте

    Дорогой пользователь! Огромная просьба, поблагодарите релизера, оцените раздачу и оставьте свои комментарий, если Вы скачали Джамбул через торрент бесплатно!!
    Комментировать посты могут только пользователи прошедшие не сложную регистрацию
    Показать сообщения:    


    Джамбул через торрент
    Скачать бесплатно Джамбул
    Джамбул скачать торрент
    Джамбул смотреть онлайн
    Cкачать фильм Джамбул бесплатно
    Джамбул скачать торрент в хорошем качестве
    Джамбул смотреть онлайн бесплатно в хорошем качестве
    Вы не можете начинать темы
    Вы не можете отвечать на сообщения
    Вы не можете редактировать свои сообщения
    Вы не можете удалять свои сообщения
    Вы не можете голосовать в опросах
    Вы не можете прикреплять файлы к сообщениям
    Вы можете скачивать файлы