новый адрес
Мега распродажа FORZA HORIZON 4 ULTIMATE+ВСЕ DLC+ОНЛАЙН всего за 499р. 349 руб. (супер цена). Внимание количество ограничено!!!

iTunes

1+1

iTunes

мы

iTunes

1

iTunes

Чернобыль

iTunes

Ральф против интернета

Лицензия

ПШазам

Лицензия

Оно 2

Лицензия

30
pack

ВАЖНО

!!Акция!!

Alien_RageХит недели

RePack

Resident Evil 21

ИГРА 18+

pack

RePack

Metro:Exodus

!!Акция!!

Alien_Rage

RePack

fifa19

RePack

Assassins Creed: Odyssey

RePack

NEED FOR SPEED™ PAYBACK

3 сезон

9 сезон

Бесстыжие 9 сезон

Все сериалы

все сериалы на PB.wtf

RePack

FAR CRY 5
Ребята, катастрофически не хватает 1900р. для оплаты серверов за Октябрь (всвязи с блокировками трафик упал в 3 раза), 1-2р., выручайте.
  

Прага(Чехия) / Prague 3D (КИВ) в 2-х Частях ( 1 Часть - Мала Страна , Градчаны, Пражский град.) [2012, Документальное кино-путеводитель, HDTV, 1080i] Anamorph SideBySide / Горизонтальная анаморфная стереопара piratbit.org

Прага через торрент piratbit.org

Размер: 10.28 GB | Добавлен: 3 года 10 мес. назад | Торрент скачан:92 раза
Скачать  

24-12-2015 03:16 Прага Скачать торрент  

Год выпуска: 2012
Страна: Россия
Жанр: Документальное Любительское кино. Видео-путешествие.
Продолжительность: 00:45:00
Перевод: Не требуется

Описание: Прага — столица и крупнейший город Чехии.

Мала Страна
Здесь сосредоточены костелы, церкви и замки, принадлежащие к различным архитектурным стилям.
Костел св. Микулаша
— разделяет Малостранскую площадь на 2 части. Был построен в 1704—1756 г.г. Кристофом и Игнацем Динценгоферами.

Колонна Пресвятой Троицы — чумной столб перед костелом св. Микулаша.
Лорета-является одним из самых примечательных памятников архитектуры стиля барокко, «детище» самого известного семейства архитекторов чешского барокко Дитценгоферов.
Страговский монастырь-Неотделимой частью пражской панорамы является комплекс Страговского монастыря с костелом Вознесения Девы Марии. Костел в стиле барокко был построен на месте романской базилики XII века.

Нерудова улица- это очень живописная улочка, которая ведет к Пражского Граду.
Градчаны-один из старейших районов Праги, в котором, несмотря на относительно небольшие размеры, находится огромное количество памятников архитектуры. Расположены Градчаны недалеко от Пражского Града и образуют с ним единое целое.

Пражский град

Собор Св.Вита- католический собор в Праге, резиденция Пражского архиепископа. Полное название собора – Собор Святого Вита, Святого Вацлава и Святого Адальберта. Он расположен на территории Пражского Града, здесь находятся усыпальницы многих королей Богемии. Этот собор являет собой превосходный образец Готической архитектуры и является самой большой и самой важной церковью в стране.

Слышал фразу: "Прагу можно обойти за 3 дня " Можно и за день, но я уверен и года мало...

Качество: HDTV 1080i
Контейнер: MPEG-Video
Формат 3D: AnamorphSideBySide / Горизонтальная анаморфная стереопара
Порядок ракурсов: левый ракурс первый
Видео кодек: MPEG-PS
Аудио кодек: AC-3
Видео: MPEG-VIDEO 31,3 Мбит/сек, 1920х1080, 16:9, 25 кадров/сек. (PAL)
Аудио: AC-3 448 Кбит/сек, 48,0 Кгц,16 Бит, 6 Каналов.
Format : MPEG-PS
File size : 10.3 GiB
Duration : 45mn 26s
Overall bit rate mode : Variable
Overall bit rate : 32.4 Mbps

Video
ID : 224 (0xE0)
Format : MPEG Video
Format version : Version 2
Format profile : Main@High
Format settings, BVOP : No
Format settings, Matrix : Default
Format settings, GOP : M=3, N=15
Duration : 45mn 26s
Bit rate mode : Variable
Bit rate : 31.3 Mbps
Maximum bit rate : 34.0 Mbps
Width : 1 920 pixels
Height : 1 080 pixels
Display aspect ratio : 16:9
Frame rate : 25.000 fps
Color space : YUV
Chroma subsampling : 4:2:0
Bit depth : 8 bits
Scan type : Interlaced
Scan order : Top Field First
Compression mode : Lossy
Bits/(Pixel*Frame) : 0.604
Time code of first frame : 00:00:00:00
Time code source : Group of pictures header
Stream size : 9.94 GiB (97%)

Audio
ID : 189 (0xBD)-128 (0x80)
Format : AC-3
Format/Info : Audio Coding 3
Mode extension : CM (complete main)
Format settings, Endianness : Big
Muxing mode : DVD-Video
Duration : 45mn 26s
Bit rate mode : Constant
Bit rate : 448 Kbps
Channel(s) : 6 channels
Channel positions : Front: L C R, Side: L R, LFE
Sampling rate : 48.0 KHz
Bit depth : 16 bits
Compression mode : Lossy
Stream size : 146 MiB (1%)
piratbit.org



Скачать Прага через торрент http://i48.fastpic.ru/big/2013/0818/8b/a8d812b936152db4ff0132ce84b82e8b.png Скачать фильм Прагачерез торрент бесплантно в хорошем качестве Описание: Прага — столица и крупнейший город Чехии.Мала СтранаЗдесь сосредоточены костелы, церкви и замки, принадлежащие к различным ... 10 10 3
Торрент: Зарегистрирован [2015-12-24 03:16] · скачан: 92 раз
Статус: √ проверено
Размер: 10.28 GB
Как cкачать? Как скачать Прага через торрент | qTorrent


>> Регистрируемся здесь <<






Отзывы и комментарии о схеме читаем и пишем здесь: ---> Отзывы и комментарии о схеме

Новые благодарочки в телеграм довольных пользователей:
скриншот   скриншот   скриншот   скриншот   скриншот
    Дорогой пользователь! Огромная просьба, поблагодарите релизера, оцените раздачу и оставьте свои комментарий, если Вы скачали Прага через торрент бесплатно! Внесите свою лепту в развитие PiratBit!
    Комментировать посты могут только пользователи прошедшие не сложную регистрацию
    Показать сообщения:    

    Прага через торрент
    Скачать бесплатно Прага
    Прага скачать торрент
    Прага смотреть онлайн
    Cкачать фильм Прага бесплатно
    Прага скачать торрент в хорошем качестве
    Прага смотреть онлайн бесплатно в хорошем качестве


    Вы не можете начинать темы
    Вы не можете отвечать на сообщения
    Вы не можете редактировать свои сообщения
    Вы не можете удалять свои сообщения
    Вы не можете голосовать в опросах
    Вы не можете прикреплять файлы к сообщениям
    Вы можете скачивать файлы