Ссылка на приватное зеркало всего за 1$. Внимание количество ограничено!!!

iTunes

iTunes

iTunes

1

iTunes

iTunes

iTunes

iTunes

iTunes

30
pack

$ от Little Big

ВАЖНО

!!Акция!!

Alien_RageХит недели

RePack

Resident Evil 21

ИГРА 18+

pack

RePack

jed

!!Акция!!

Alien_Rage

RePack

fifa19

RePack

Assassins Creed: Odyssey

RePack

NEED FOR SPEED™ PAYBACK

4 сезон

9 сезон

Бесстыжие 9 сезон

Все сериалы

все сериалы на PB.wtf

RePack

FAR CRY 5
  

С.Петербург, Петродворец, Валдай в 3D (КИВ) [2012, Документальное кино, HDTV 1080i] Anamorph SideBySide / Горизонтальная анаморфная стереопара piratbit.org

С.Петербург, Петродворец, Валдай в 3D через торрент piratbit.org

Раздают: 1 [ 0 KB/s ]
Размер: 4.75 GB | Добавлен: 4 года 5 мес. назад | Торрент скачан:194 раза
Скачать  

24-12-2015 03:50 С.Петербург, Петродворец, Валдай в 3D Скачать торрент  


Год выпуска: 2012
Страна: Россия
Жанр: Документальное Любительское кино. Видео-путешествие.
Продолжительность: 00:39:00
Русские субтитры: нет


Описание:Санкт-Петербург является самым северным из городов мира с населением свыше 4 миллионов человек. Город расположен в северо-западной части России, в пределах Приневской низменности, на прилегающем к устью реки Невы побережье Невской губы Финского залива,основан 16 мая 1703 года императором Петром I.
Высокоширотным положением города объясняется явление белых ночей.

Петродворец - расположен на южном берегу Финского залива. Крупный туристический центр к западу от Санкт-Петербурга.
Петродворец - всемирно известный своими фонтанами дворцово-парковый ансамбль.
Замысел создания загородной царской резиденции, которая не уступала бы Версалю во Франции, возник у Петра I в 1714 году. Общая концепция планировки парков и дворцов Петергофа принадлежит императу.
Фонтанов (173 фонтана, 4 каскада). Ежегодно до 3 млн. человек приезжают сюда, чтобы насладиться великолепием многочисленных фонтанов, уникальных парков и павильонов Петергофа.
Показаны: Большой каскад,"Самсон","Чаши","Оранжерейный","Римские фонтаны" ,Фонтаны-шутихи,"Солнце","Сноп","Китовый","Адам" и "Ева", Морской канал и Аллея фонтанов.

Валдайский Иверский Богородицкий Святоозерский монастырь
(также Святоезерский) — православный мужской монастырь Русской Церкви, основанный патриархом Никоном.
Находится на Сельвицком острове Валдайского озера в Валдайском районе Новгородской области, в 10 км от города Валдай.

Качество: HDTV 1080i
Видеопоток: AVC
Формат 3D: Anamorph SideBySide / Горизонтальная анаморфная стереопара
Порядок ракурсов: левый ракурс первый
Видео кодек: MPEG-4
Аудио кодек: AAC
Видео: AVC 17,0 Мбит/сек, 1920х1080, 16:9, 25 кадров/сек. (PAL)
Аудио: AAC 235 Кбит/сек, 48,0 Кгц, 2 Канала
Format : MPEG-4
Format profile : Sony PSP
Codec ID : MSNV
File size : 4.75 GiB
Duration : 39mn 22s
Overall bit rate mode : Variable
Overall bit rate : 17.3 Mbps
Encoded date : UTC 2012-06-28 06:31:19
Tagged date : UTC 2012-06-28 06:31:19

Video
ID : 1
Format : AVC
Format/Info : Advanced Video Codec
Format profile : High@L4.0
Format settings, CABAC : Yes
Format settings, ReFrames : 2 frames
Codec ID : avc1
Codec ID/Info : Advanced Video Coding
Duration : 39mn 22s
Bit rate mode : Variable
Bit rate : 17.0 Mbps
Maximum bit rate : 17.5 Mbps
Width : 1 920 pixels
Height : 1 080 pixels
Display aspect ratio : 16:9
Frame rate mode : Constant
Frame rate : 25.000 fps
Color space : YUV
Chroma subsampling : 4:2:0
Bit depth : 8 bits
Scan type : Interlaced
Bits/(Pixel*Frame) : 0.329
Stream size : 4.68 GiB (99%)
Language : English
Encoded date : UTC 2012-06-28 06:31:19
Tagged date : UTC 2012-06-28 06:31:19

Audio
ID : 2
Format : AAC
Format/Info : Advanced Audio Codec
Format profile : LC
Codec ID : 40
Duration : 39mn 22s
Source duration : 39mn 22s
Bit rate mode : Constant
Bit rate : 235 Kbps
Nominal bit rate : 384 Kbps
Channel(s) : 2 channels
Channel positions : Front: L R
Sampling rate : 48.0 KHz
Compression mode : Lossy
Stream size : 66.2 MiB (1%)
Source stream size : 66.2 MiB (1%)
Language : English
Encoded date : UTC 2012-06-28 06:31:19
Tagged date : UTC 2012-06-28 06:31:19
mdhd_Duration : 2362343
piratbit.org



Скачать С.Петербург, Петродворец, Валдай в 3D через торрент http://i42.fastpic.ru/big/2012/0716/e6/a7b8909c6f400b8ff1926114737015e6.png Скачать фильм С.Петербург, Петродворец, Валдай в 3D через торрент бесплантно в хорошем качестве Описание:Санкт-Петербург является самым северным из городов мира с населением свыше 4 миллионов человек. Город расположен в северо-западной ... 10 10 2
Info! Золотая раздача, скачанное не засчитывается.
Торрент: Зарегистрирован [2015-12-24 03:50] · скачан: 194 раз
Статус: √ проверено
Размер: 4.75 GB
Как cкачать? Как скачать С.Петербург, Петродворец, Валдай в 3D через торрент | qTorrent

28-11-2019 20:33  

Отключить всю рекламу на сайте

    Дорогой пользователь! Огромная просьба, поблагодарите релизера, оцените раздачу и оставьте свои комментарий, если Вы скачали С.Петербург, Петродворец, Валдай в 3D через торрент бесплатно! Внесите свою лепту в развитие PiratBit!
    Комментировать посты могут только пользователи прошедшие не сложную регистрацию
    Показать сообщения:    

    С.Петербург, Петродворец, Валдай в 3D через торрент
    Скачать бесплатно С.Петербург, Петродворец, Валдай в 3D
    С.Петербург, Петродворец, Валдай в 3D скачать торрент
    С.Петербург, Петродворец, Валдай в 3D смотреть онлайн
    Cкачать фильм С.Петербург, Петродворец, Валдай в 3D бесплатно
    С.Петербург, Петродворец, Валдай в 3D скачать торрент в хорошем качестве
    С.Петербург, Петродворец, Валдай в 3D смотреть онлайн бесплатно в хорошем качестве


    Вы не можете начинать темы
    Вы не можете отвечать на сообщения
    Вы не можете редактировать свои сообщения
    Вы не можете удалять свои сообщения
    Вы не можете голосовать в опросах
    Вы не можете прикреплять файлы к сообщениям
    Вы можете скачивать файлы