новый адрес
Мега распродажа FORZA HORIZON 4 ULTIMATE+ВСЕ DLC+ОНЛАЙН всего за 499р. 349 руб. (супер цена). Внимание количество ограничено!!!

iTunes

1+1

iTunes

мы

iTunes

1

iTunes

Чернобыль

iTunes

Ральф против интернета

Лицензия

ПШазам

Лицензия

Игра престолов

Лицензия

30
pack

ВАЖНО

!!Акция!!

Alien_RageХит недели

RePack

Resident Evil 21

ИГРА 18+

pack

RePack

Metro:Exodus

!!Акция!!

Alien_Rage

RePack

fifa19

RePack

Assassins Creed: Odyssey

RePack

NEED FOR SPEED™ PAYBACK

3 сезон

9 сезон

Бесстыжие 9 сезон

Все сериалы

все сериалы на PB.wtf

RePack

FAR CRY 5
Ребята, катастрофически не хватает 1900р. для оплаты серверов за Октябрь (всвязи с блокировками трафик упал в 3 раза), 1-2р., выручайте.
  

Таиланд (о.Пхукет) 3Д / Thailand в 3D (КИВ) [2012, Документальное кино-путеводитель, HDTV 1080i] Anamorph SideBySide / Горизонтальная анаморфная стереопара piratbit.org

Таиланд через торрент piratbit.org

Размер: 15.26 GB | Добавлен: 3 года 10 мес. назад | Торрент скачан:198 раз
Скачать  

24-12-2015 04:07 Таиланд Скачать торрент  

Год выпуска: 2012
Страна: Россия
Жанр: Документальное любительское кино-путеводитель.
Продолжительность: 1:40:00
Перевод: Не требуется
Русские субтитры: нет



Описание: Таиланд ( остров Пхукет.)
Остров Пхукет — расположен на юго-западе Таиланда,омывается водами Андаманского моря, Индийского океана. Одноименная провинция Таиланда.
Показаны достопримечательности:
Пляж Карон,
Острова: Дж.Бонда, Панак, Хонг, Пхи-Пхи, Симиланские острова,
Большой Будда, Храм Чалонг, Храм Карон,
Приматы, Слоны, Прогулка на каноэ, Ферма бабочек.

Качество: HDTV 1080i
Контейнер: MPEG-Video
Формат 3D: Half SideBySide / Горизонтальная анаморфная стереопара
Порядок ракурсов: левый ракурс первый
Видео кодек: MPEG-PS
Аудио кодек: AC-3
Видео: MPEG-VIDEO 20,8 Мбит/сек, 1920х1080, 16:9, 25 кадров/сек. (PAL)
Аудио: AC-3 448 Кбит/сек, 48,0 Кгц,16 Бит, 6 Каналов.
Format : MPEG-PS
File size : 15.3 GiB
Duration : 1h 40mn
Overall bit rate mode : Variable
Overall bit rate : 21.6 Mbps

Video
ID : 224 (0xE0)
Format : MPEG Video
Format version : Version 2
Format profile : Main@High
Format settings, BVOP : No
Format settings, Matrix : Custom
Format settings, GOP : M=3, N=15
Duration : 1h 40mn
Bit rate mode : Variable
Bit rate : 20.8 Mbps
Maximum bit rate : 23.0 Mbps
Width : 1 920 pixels
Height : 1 080 pixels
Display aspect ratio : 16:9
Frame rate : 25.000 fps
Color space : YUV
Chroma subsampling : 4:2:0
Bit depth : 8 bits
Scan type : Interlaced
Scan order : Top Field First
Compression mode : Lossy
Bits/(Pixel*Frame) : 0.400
Time code of first frame : 00:00:00:00
Time code source : Group of pictures header
Stream size : 14.6 GiB (96%)

Audio
ID : 189 (0xBD)-128 (0x80)
Format : AC-3
Format/Info : Audio Coding 3
Mode extension : CM (complete main)
Format settings, Endianness : Big
Muxing mode : DVD-Video
Duration : 1h 40mn
Bit rate mode : Constant
Bit rate : 448 Kbps
Channel(s) : 6 channels
Channel positions : Front: L C R, Side: L R, LFE
Sampling rate : 48.0 KHz
Bit depth : 16 bits
Compression mode : Lossy
Stream size : 324 MiB (2%)
piratbit.org



Скачать Таиланд через торрент http://i55.fastpic.ru/big/2013/0821/5e/7393ddf348886907b72237381126df5e.png Скачать фильм Таиланд через торрент бесплантно в хорошем качестве Описание: Таиланд ( остров Пхукет.)Остров Пхукет — расположен на юго-западе Таиланда,омывается водами Андаманского моря, Индийского океана. ... 10 10 5
Торрент: Зарегистрирован [2015-12-24 04:07] · скачан: 198 раз
Статус: √ проверено
Размер: 15.26 GB
Как cкачать? Как скачать Таиланд через торрент | qTorrent


>> Регистрируемся здесь <<






Отзывы и комментарии о схеме читаем и пишем здесь: ---> Отзывы и комментарии о схеме

Новые благодарочки в телеграм довольных пользователей:
скриншот   скриншот   скриншот   скриншот   скриншот
    Дорогой пользователь! Огромная просьба, поблагодарите релизера, оцените раздачу и оставьте свои комментарий, если Вы скачали Таиланд через торрент бесплатно! Внесите свою лепту в развитие PiratBit!
    Комментировать посты могут только пользователи прошедшие не сложную регистрацию
    Показать сообщения:    

    Таиланд через торрент
    Скачать бесплатно Таиланд
    Таиланд скачать торрент
    Таиланд смотреть онлайн
    Cкачать фильм Таиланд бесплатно
    Таиланд скачать торрент в хорошем качестве
    Таиланд смотреть онлайн бесплатно в хорошем качестве


    Вы не можете начинать темы
    Вы не можете отвечать на сообщения
    Вы не можете редактировать свои сообщения
    Вы не можете удалять свои сообщения
    Вы не можете голосовать в опросах
    Вы не можете прикреплять файлы к сообщениям
    Вы можете скачивать файлы