новый адрес
Мега распродажа FORZA HORIZON 4 ULTIMATE+ВСЕ DLC+ОНЛАЙН всего за 499р. 349 руб. (супер цена). Внимание количество ограничено!!!

iTunes

1+1

iTunes

мы

iTunes

1

iTunes

Чернобыль

iTunes

Ральф против интернета

Лицензия

ПШазам

Лицензия

Оно 2

Лицензия

30
pack

ВАЖНО

!!Акция!!

Alien_RageХит недели

RePack

Resident Evil 21

ИГРА 18+

pack

RePack

Metro:Exodus

!!Акция!!

Alien_Rage

RePack

fifa19

RePack

Assassins Creed: Odyssey

RePack

NEED FOR SPEED™ PAYBACK

3 сезон

9 сезон

Бесстыжие 9 сезон

Все сериалы

все сериалы на PB.wtf

RePack

FAR CRY 5
Ребята, катастрофически не хватает 1900р. для оплаты серверов за Октябрь (всвязи с блокировками трафик упал в 3 раза), 1-2р., выручайте.
  

Царское село в 3D (КИВ) [2013, документальное кино, HDTV 1080i] Anamorph SideBySide/Горизонтальная анаморфная стереопара piratbit.org

Царское село в 3D через торрент piratbit.org

Раздают: 1 [ 0 KB/s ]
Размер: 6.15 GB | Добавлен: 3 года 10 мес. назад | Торрент скачан:133 раза
Скачать  

24-12-2015 04:29 Царское село в 3D Скачать торрент  

Год выпуска: 2013
Страна: Россия
Жанр: Документальное Любительское кино. Видео-путешествие.
Продолжительность: 0:53:00
Перевод: Не требуется
Русские субтитры: нет




Состав и описание раздачи: Государственный музей-заповедник "Царское Село" — выдающийся памятник мировой архитектуры и садово-паркового искусства XVIII - начала XX века. Великолепное созвездие талантливых зодчих, скульпторов, живописцев, садовых мастеров, инженеров воплощало амбициозные замыслы российских государей. В Царском Селе во всей полноте представлено разнообразие художественных стилей: русского барокко-рококо (Ф.-Б. Растрелли), классицизма (Ч. Камерон, Дж. Кваренги, В. Стасов и другие) и последующих стилистических направлений XIX - начала XX века. Все царствования, начиная с Петра I, оставили здесь свой отпечаток.
Роль композиционного ядра всего ансамбля играет Екатерининский дворец — грандиозные сооружение в стиле русского барокко. Поражают роскошью отделки Большой зал дворца и "золотая анфилада" парадных залов, среди которых — всемирно известная возрожденная Янтарная комната. Попав сюда, Вы почувствуете дух елизаветинской и екатерининской эпох, отчасти — эпохи императора Александра I.
На территории Екатерининского парка общей площадью 300 гектаров расположены архитектурные сооружения: от мраморных монументов до многочисленных павильонов, мостиков, экзотических сооружений, придающих паркам неповторимый характер.

Качество: HDTV 1080i
Контейнер: MPEG-Video
Формат 3D: AnamorphSideBySide / Горизонтальная анаморфная стереопара
Порядок ракурсов: левый ракурс первый
Видео кодек: MPEG-PS
Аудио кодек: AC-3
Видео: MPEG-VIDEO 15,8 Мбит/сек, 1920х1080, 16:9, 25 кадров/сек. (PAL)
Аудио: AC-3 448 Кбит/сек, 48,0 Кгц,16 Бит, 6 Каналов.
Format : MPEG-PS
File size : 6.15 GiB
Duration : 53mn 14s
Overall bit rate mode : Variable
Overall bit rate : 16.5 Mbps

Video
ID : 224 (0xE0)
Format : MPEG Video
Format version : Version 2
Format profile : Main@High
Format settings, BVOP : No
Format settings, Matrix : Custom
Format settings, GOP : M=3, N=15
Duration : 53mn 14s
Bit rate mode : Variable
Bit rate : 15.8 Mbps
Maximum bit rate : 17.0 Mbps
Width : 1 920 pixels
Height : 1 080 pixels
Display aspect ratio : 16:9
Frame rate : 25.000 fps
Color space : YUV
Chroma subsampling : 4:2:0
Bit depth : 8 bits
Scan type : Interlaced
Scan order : Top Field First
Compression mode : Lossy
Bits/(Pixel*Frame) : 0.304
Time code of first frame : 00:00:00:00
Time code source : Group of pictures header
Stream size : 5.86 GiB (95%)

Audio
ID : 189 (0xBD)-128 (0x80)
Format : AC-3
Format/Info : Audio Coding 3
Mode extension : CM (complete main)
Format settings, Endianness : Big
Muxing mode : DVD-Video
Duration : 53mn 14s
Bit rate mode : Constant
Bit rate : 448 Kbps
Channel(s) : 6 channels
Channel positions : Front: L C R, Side: L R, LFE
Sampling rate : 48.0 KHz
Bit depth : 16 bits
Compression mode : Lossy
Stream size : 171 MiB (3%)
piratbit.org



Скачать Царское село в 3D через торрент http://i46.fastpic.ru/big/2013/0615/ce/666d3716fd36b2453971432d4bfed4ce.png Скачать фильм Царское село в 3D через торрент бесплантно в хорошем качестве Год выпуска: 2013Страна: РоссияЖанр: Документальное Любительское кино. Видео-путешествие.Продолжительность: 0:53:00Перевод: Не ... 10 10 4
Info! Золотая раздача, скачанное не засчитывается.
Торрент: Зарегистрирован [2015-12-24 04:29] · скачан: 133 раз
Статус: √ проверено
Размер: 6.15 GB
Как cкачать? Как скачать Царское село в 3D через торрент | qTorrent


>> Регистрируемся здесь <<






Отзывы и комментарии о схеме читаем и пишем здесь: ---> Отзывы и комментарии о схеме

Новые благодарочки в телеграм довольных пользователей:
скриншот   скриншот   скриншот   скриншот   скриншот
    Дорогой пользователь! Огромная просьба, поблагодарите релизера, оцените раздачу и оставьте свои комментарий, если Вы скачали Царское село в 3D через торрент бесплатно! Внесите свою лепту в развитие PiratBit!
    Комментировать посты могут только пользователи прошедшие не сложную регистрацию
    Показать сообщения:    

    Царское село в 3D через торрент
    Скачать бесплатно Царское село в 3D
    Царское село в 3D скачать торрент
    Царское село в 3D смотреть онлайн
    Cкачать фильм Царское село в 3D бесплатно
    Царское село в 3D скачать торрент в хорошем качестве
    Царское село в 3D смотреть онлайн бесплатно в хорошем качестве


    Вы не можете начинать темы
    Вы не можете отвечать на сообщения
    Вы не можете редактировать свои сообщения
    Вы не можете удалять свои сообщения
    Вы не можете голосовать в опросах
    Вы не можете прикреплять файлы к сообщениям
    Вы можете скачивать файлы