Marvel's Avengers Deluxe Edition (супер цена) 159р. Внимание количество ограничено!!!

2 сезон

iTunes

iTunes

1

iTunes

iTunes

iTunes

WEBRip

iTunes

30
pack

Новость дня

ВАЖНО

!!Акция!!

Alien_RageХит недели

RePack

Horizon Zero Dawn

ИГРА 18+

pack

RePack

jed

!!Акция!!

Alien_Rage

RePack

fifa19

RePack

Assassins Creed: Odyssey

RePack

NEED FOR SPEED™ PAYBACK

4 сезон

9 сезон

Бесстыжие 9 сезон

Все сериалы

все сериалы на PB.wtf

RePack

FAR CRY 5
  

Удачи, Чак! / Good Luck Chuck (Марк Хелфрич / Mark Helfrich) [2007, драма, мелодрама, комедия, BDRip-AVC от potroks] [UNRATED] Dub piratbit.org

Удачи, Чак! через торрент piratbit.org

Размер: 2.91 GB | Добавлен: 4 года 8 мес. назад | Торрент скачан:144 раза
Скачать  

28-12-2015 03:46 Удачи, Чак! Скачать торрент  

Удачи, Чак! / Good Luck Chuck
«Секс! Секс! Секс! И...Любовь?»
Год выпуска: 2007
Страна: США, Канада / Karz Entertainment, Lions Gate Films Inc.
Жанр: драма, мелодрама, комедия
Продолжительность: 01:41:16
Перевод: Дубляж
Субтитры: английские
Навигация по главам: есть
Режиссер: Марк Хелфрич / Mark Helfrich
В ролях:

Джессика Альба (Cam), Дейн Кук (Charlie), Дэн Фоглер (Stu), Коннор Прайс (Young Charlie), Трой Джентиле (Young Stu), Маккензи Моуат (Birthday Girl), Саша Питерс (Goth Girl), Кэролайн Форд (Jennifer), Челан Симмонс (Carol), Натали Моррис (Natalie), Эллиа Инглиш (Reba), Чанг Тсенг (Karaoke Singer)
Описание: Довольный жизнью молодой дантист обнаруживает удивительную вещь - любая девушка после встреч с ним буквально на следующий день находит себе идеального спутника жизни. Главного героя вполне устраивает такая ситуация - никаких, понимаешь, обязательств и шумных разрывов. Разумеется, ситуация в корне меняется, когда он находит свою половинку.
Доп. информация: Unrated-версия не выходила в дубляже, поэтому несколько сцен остались без перевода (около 2 минут - в основном постельные сцены).

Качество: BDRip-AVC
Формат: MKV
Видео кодек: AVC
Аудио кодек: AC3
Видео: 1060x572 (1.853), 3226 kbps, 23,976 fps, 0,222 bit/pixel
Аудио №1: AC3 / 5.1 / 48 kHz / 448 kbps / 16 bit | RUS
Аудио №2: AC3 / 5.1 / 48 kHz / 448 kbps / 16 bit | ENG

Релиз группы:
Автор рипа: potroks

Код:

General
Unique ID                   : 236158817191818639516947383623164536194 (0xB1AA88A4E4CF06738C1163A6A5AEA582)
Complete name               : N:\Комедия\Udachi.Chak.2007.DUAL.BDRip.x264.-HELLYWOOD.mkv
Format                      : Matroska
Format version              : Version 4 / Version 2
File size                   : 2.91 GiB
Duration                    : 1h 41mn
Overall bit rate            : 4 116 Kbps
Movie name                  : Good Luck Chuck (2007) - HELLYWOOD
Encoded date                : UTC 2010-02-22 21:41:31
Writing application         : mkvmerge v5.8.0 ('No Sleep / Pillow') built on Sep 30 2012 10:57:14
Writing library             : libebml v1.3.0 + libmatroska v1.4.0

Video
ID                          : 1
Format                      : AVC
Format/Info                 : Advanced Video Codec
Format profile              : High@L4.1
Format settings, CABAC      : Yes
Format settings, ReFrames   : 10 frames
Codec ID                    : V_MPEG4/ISO/AVC
Duration                    : 1h 41mn
Bit rate                    : 3 226 Kbps
Width                       : 1 060 pixels
Height                      : 572 pixels
Display aspect ratio        : 1.85:1
Frame rate mode             : Constant
Frame rate                  : 23.976 fps
Color space                 : YUV
Chroma subsampling          : 4:2:0
Bit depth                   : 8 bits
Scan type                   : Progressive
Bits/(Pixel*Frame)          : 0.222
Stream size                 : 2.22 GiB (76%)
Title                       : potroks
Writing library             : x264 core 146 r2538 121396c
Encoding settings           : cabac=1 / ref=10 / deblock=1:-3:-3 / analyse=0x3:0x113 / me=umh / subme=11 / psy=1 / psy_rd=0.98:0.01 / mixed_ref=1 / me_range=48 / chroma_me=1 / trellis=2 / 8x8dct=1 / cqm=0 / deadzone=21,11 / fast_pskip=0 / chroma_qp_offset=-3 / threads=9 / lookahead_threads=2 / sliced_threads=0 / nr=0 / decimate=0 / interlaced=0 / bluray_compat=0 / constrained_intra=0 / bframes=11 / b_pyramid=2 / b_adapt=2 / b_bias=0 / direct=3 / weightb=1 / open_gop=0 / weightp=2 / keyint=250 / keyint_min=23 / scenecut=40 / intra_refresh=0 / rc_lookahead=60 / rc=2pass / mbtree=0 / bitrate=3226 / ratetol=1.0 / qcomp=0.70 / qpmin=0 / qpmax=69 / qpstep=4 / cplxblur=20.0 / qblur=0.5 / vbv_maxrate=14000 / vbv_bufsize=14000 / nal_hrd=none / filler=0 / ip_ratio=1.40 / pb_ratio=1.30 / aq=1:0.80
Language                    : English
Default                     : Yes
Forced                      : No

Audio #1
ID                          : 2
Format                      : AC-3
Format/Info                 : Audio Coding 3
Mode extension              : CM (complete main)
Format settings, Endianness : Big
Codec ID                    : A_AC3
Duration                    : 1h 41mn
Bit rate mode               : Constant
Bit rate                    : 448 Kbps
Channel(s)                  : 6 channels
Channel positions           : Front: L C R, Side: L R, LFE
Sampling rate               : 48.0 KHz
Frame rate                  : 31.250 fps (1536 spf)
Compression mode            : Lossy
Stream size                 : 325 MiB (11%)
Title                       : Dub | DD 5.1 @ 448 kbps
Language                    : Russian
Default                     : Yes
Forced                      : No

Audio #2
ID                          : 3
Format                      : AC-3
Format/Info                 : Audio Coding 3
Mode extension              : CM (complete main)
Format settings, Endianness : Big
Codec ID                    : A_AC3
Duration                    : 1h 41mn
Bit rate mode               : Constant
Bit rate                    : 448 Kbps
Channel(s)                  : 6 channels
Channel positions           : Front: L C R, Side: L R, LFE
Sampling rate               : 48.0 KHz
Frame rate                  : 31.250 fps (1536 spf)
Compression mode            : Lossy
Stream size                 : 325 MiB (11%)
Title                       : Original | DD 5.1 @ 448 kbps
Language                    : English
Default                     : No
Forced                      : No

Text
ID                          : 4
Format                      : UTF-8
Codec ID                    : S_TEXT/UTF8
Codec ID/Info               : UTF-8 Plain Text
Language                    : English
Default                     : No
Forced                      : No

Menu
00:00:00.000                : en:(01)00:00:00:000
00:08:16.120                : en:(02)00:08:16:120
00:18:05.000                : en:(03)00:18:05:000
00:26:04.104                : en:(04)00:26:04:104
00:34:38.576                : en:(05)00:34:38:576
00:39:23.361                : en:(06)00:39:23:361
00:43:59.136                : en:(07)00:43:59:136
00:48:20.105                : en:(08)00:48:20:105
00:54:50.954                : en:(09)00:54:50:954
00:59:33.903                : en:(10)00:59:33:903
01:05:44.941                : en:(11)01:05:44:941
01:08:41.617                : en:(12)01:08:41:617
01:14:28.922                : en:(13)01:14:28:922
01:19:09.870                : en:(14)01:19:09:870
01:24:05.457                : en:(15)01:24:05:457
01:34:30.164                : en:(16)01:34:30:164

piratbit.org



Скачать Удачи, Чак! через торрент http://i73.fastpic.ru/big/2015/1228/fc/f5127ccc0018d3b295de0686905c43fc.png Скачать фильм Удачи, Чак! через торрент бесплантно в хорошем качестве Описание: Довольный жизнью молодой дантист обнаруживает удивительную вещь - любая девушка после встреч с ним буквально на следующий день ... 10 10 5
Info! Золотая раздача, скачанное не засчитывается.
Торрент: Зарегистрирован [2015-12-28 03:46] · скачан: 144 раз
Статус: √ проверено
Размер: 2.91 GB
Как cкачать? Как скачать Удачи, Чак! через торрент | qTorrent

% Раздел Тема Автор DL S | L
Фильмы 2006-2008 [ 744 MB ] Удачи Чак! / Good Luck Chuck [2007 HDRip-AVC] [Unrated] killermax2013 Скачать
1 | 0

28-11-2019 20:33  

Отключить всю рекламу на сайте

    Дорогой пользователь! Огромная просьба, поблагодарите релизера, оцените раздачу и оставьте свои комментарий, если Вы скачали Удачи, Чак! через торрент бесплатно! Внесите свою лепту в развитие PiratBit!
    Комментировать посты могут только пользователи прошедшие не сложную регистрацию
    Показать сообщения:    

    Удачи, Чак! через торрент
    Скачать бесплатно Удачи, Чак!
    Удачи, Чак! скачать торрент
    Удачи, Чак! смотреть онлайн
    Cкачать фильм Удачи, Чак! бесплатно
    Удачи, Чак! скачать торрент в хорошем качестве
    Удачи, Чак! смотреть онлайн бесплатно в хорошем качестве


    Вы не можете начинать темы
    Вы не можете отвечать на сообщения
    Вы не можете редактировать свои сообщения
    Вы не можете удалять свои сообщения
    Вы не можете голосовать в опросах
    Вы не можете прикреплять файлы к сообщениям
    Вы можете скачивать файлы