Лицензия

MVO

1

1 сезон

Лицензия

Лицензия

13

MVO

1 сезон

Deluxe Edition

pack

Рекомендуем

30

Repack

ВАЖНО

ВАЖНО

Ghostwire

RePack

jed

RePack

fifa19

RePack

RDR2

RePack

NEED FOR SPEED™ PAYBACK

RePack

Кинопоиск HD

 Острые козырьки 6 сезон

6 сезон

FAR CRY 6

RePack

Лицензия

MVO

1

1 сезон

1 сезон

Лицензия

  

Горе от ума (Сергей Алексеев) [1952, СССР, комедия, мелодрама, DVDRip от AVP Studio]

Горе от ума через торрент piratbit.org

Размер: 2.12 GB | Добавлен: 6 лет 8 мес. назад | Торрент скачан:30 раз
Смотреть онлайн Горе от ума | Скачать   

30-12-2015 09:36 Горе от ума Скачать торрент  

Горе от ума
Страна: СССР
Производство: Киностудия им. Горького

Жанр: комедия, мелодрама
Год выпуска: 1952
Продолжительность: 02:24:35 (01:05:29 + 01:19:06)

Перевод: Не требуется
Cубтитры: нет
Оригинальная аудиодорожка: русский

Режиссер: Сергей Алексеев

В ролях:
Константин Зубов, Ирина Ликсо, Ольга Хорькова, Михаил Садовский (младший), Михаил Царёв, Анатолий Ржанов, Татьяна Еремеева, Николай Рыжов, Пётр Старковский, Евдокия Турчанинова, Варвара Рыжова, Наталья Стоянова, Игорь Ильинский, Вера Пашенная, Александр Коротков, Иван Лагутин, Николай Светловидов...
Полный список актёров

Описание:
Фильм-спектакль Государственного академического Малого театра по одноименной комедии А.С. Грибоедова.
В дом санового московского барина Фамусова приезжает Чацкий, возвратившийся из дальних странствий. Он спешит увидеть Софью, дочь Фамусова, которую любит с давних пор. Но Софья холодно встречает пылкие излияния Чацкого. Её сентиментальную натуру, взлелеянную французскими романами, оскорбляют проникнутые горечью и негодованием речи Чацкого. Он обличает взяточничество, низкопоклонство, невежество и холуйство. Фамусов, Скалозуб, Молчалин, Загорецкий, Репетилов и другие мстят Чацкому, объявив его безумным. В довершение всего Чацкий узнает, что Софья отдала своё сердце ничтожному Молчалину.

Источник: DVD9 R5
Качество видео: DVDRip
Формат видео: AVI

Видео: 688x512 (4:3), 25 fps, XviD ~ 1952 kbps avg, 0.222 bit/pixel
Аудио: 48 kHz, Dolby Digital AC3 2.0, 192 kbps

Раздача от:
Общее
Полное имя : Gore.ot.uma.1952.DVDRip_[New-team]_by_AVP_Studio\01.avi
Формат : AVI
Формат/Информация : Audio Video Interleave
Размер файла : 947 Мбайт
Продолжительность : 1 ч. 5 м.
Общий поток : 2022 Кбит/сек
Программа кодирования : VirtualDubMod 1.5.10.3 | www.virtualdub-fr.org || (build 2550/release)
Библиотека кодирования : VirtualDubMod build 2550/release

Видео
Идентификатор : 0
Формат : MPEG-4 Visual
Профиль формата : Advanced Simple@L5
Параметр BVOP формата : 1
Параметр QPel формата : Нет
Параметр GMC формата : Без точки перехода
Параметр матрицы формата : Выборочная
Идентификатор кодека : XVID
Идентификатор кодека/Подсказка : XviD
Продолжительность : 1 ч. 5 м.
Битрейт : 1952 Кбит/сек
Ширина : 688 пикселей
Высота : 512 пикселей
Соотношение сторон : 4:3
Частота кадров : 25,000 кадров/сек
Цветовое пространство : YUV
Субдискретизация насыщенности : 4:2:0
Битовая глубина : 8 бит
Тип развёртки : Прогрессивная
Метод сжатия : С потерями
Бит/(Пиксели*Кадры) : 0.222
Размер потока : 914 Мбайт (97%)
Библиотека кодирования : XviD 1.2.1 (UTC 2008-12-04)

Аудио
Идентификатор : 1
Формат : AC-3
Формат/Информация : Audio Coding 3
Расширение режима : CM (complete main)
Параметр Endianness формата : Big
Идентификатор кодека : 2000
Продолжительность : 21 м.
Продолжительность оригинала : 21 м.
Вид битрейта : Постоянный
Битрейт : 192 Кбит/сек
Каналы : 2 канала
Расположение каналов : Front: L R
Частота : 48,0 КГц
Метод сжатия : С потерями
Размер потока : 29,7 Мбайт (3%)
Выравнивание : Разделение по промежуткам
Продолжительность промежутка : 121 мс. (3,03 видеокадра)
Время предзагрузки промежутка : 500 мс



Скачать Горе от ума через торрент http://s018.radikal.ru/i506/1512/ae/6b6a9ce9334c.png Скачать, смотреть онлайн Горе от ума бесплантно в хорошем качестве Описание:Фильм-спектакль Государственного академического Малого театра по одноименной комедии А.С. Грибоедова.В дом санового московского ... 10 10 1
Info! Серебряная раздача, засчитывается только 50% скачанного.
Торрент: Зарегистрирован [2015-12-30 09:36] · скачан: 30 раз
Статус: √ проверено
Размер: 2.12 GB
Как cкачать? Как скачать Горе от ума через торрент | UTorrent

% Раздел Тема Автор DL S | L
Кино СССР [ 2.18 GB ] Горе от ума | | DVDRip-AVC от AVP Studio AVP Studio Скачать
1 | 0

28-11-2019 20:33  

Отключить вcю реклaмy на сайте

    Дорогой пользователь! Огромная просьба, поблагодарите релизера, оцените раздачу и оставьте свои комментарий, если Вы скачали Горе от ума через торрент бесплатно!!
    Комментировать посты могут только пользователи прошедшие не сложную регистрацию
    Показать сообщения:    


    Горе от ума через торрент
    Скачать бесплатно Горе от ума
    Горе от ума скачать торрент
    Горе от ума смотреть онлайн
    Cкачать фильм Горе от ума бесплатно
    Горе от ума скачать торрент в хорошем качестве
    Горе от ума смотреть онлайн бесплатно в хорошем качестве
    Вы не можете начинать темы
    Вы не можете отвечать на сообщения
    Вы не можете редактировать свои сообщения
    Вы не можете удалять свои сообщения
    Вы не можете голосовать в опросах
    Вы не можете прикреплять файлы к сообщениям
    Вы можете скачивать файлы