Лицензия

MVO

1

1 сезон

Лицензия

Лицензия

13

MVO

1 сезон

Deluxe Edition

pack

Рекомендуем

30

Repack

ВАЖНО

ВАЖНО

Ghostwire

RePack

jed

RePack

fifa19

RePack

RDR2

RePack

NEED FOR SPEED™ PAYBACK

RePack

Кинопоиск HD

 Острые козырьки 6 сезон

6 сезон

FAR CRY 6

RePack

Лицензия

MVO

1

1 сезон

1 сезон

Лицензия

  

Горе от ума (Сергей Алексеев) [1952, СССР, комедия, мелодрама, DVDRip-AVC от AVP Studio]

Горе от ума через торрент piratbit.org

Размер: 2.18 GB | Добавлен: 6 лет 8 мес. назад | Торрент скачан:54 раза
Смотреть онлайн Горе от ума | Скачать   

30-12-2015 09:37 Горе от ума Скачать торрент  

Горе от ума
Страна: СССР
Производство: Киностудия им. Горького

Жанр: комедия, мелодрама
Год выпуска: 1952
Продолжительность: 02:24:35 (01:05:29 + 01:19:06)

Перевод: Не требуется
Cубтитры: нет
Оригинальная аудиодорожка: русский

Режиссер: Сергей Алексеев

В ролях:
Константин Зубов, Ирина Ликсо, Ольга Хорькова, Михаил Садовский (младший), Михаил Царёв, Анатолий Ржанов, Татьяна Еремеева, Николай Рыжов, Пётр Старковский, Евдокия Турчанинова, Варвара Рыжова, Наталья Стоянова, Игорь Ильинский, Вера Пашенная, Александр Коротков, Иван Лагутин, Николай Светловидов...
Полный список актёров

Описание:
Фильм-спектакль Государственного академического Малого театра по одноименной комедии А.С. Грибоедова.
В дом санового московского барина Фамусова приезжает Чацкий, возвратившийся из дальних странствий. Он спешит увидеть Софью, дочь Фамусова, которую любит с давних пор. Но Софья холодно встречает пылкие излияния Чацкого. Её сентиментальную натуру, взлелеянную французскими романами, оскорбляют проникнутые горечью и негодованием речи Чацкого. Он обличает взяточничество, низкопоклонство, невежество и холуйство. Фамусов, Скалозуб, Молчалин, Загорецкий, Репетилов и другие мстят Чацкому, объявив его безумным. В довершение всего Чацкий узнает, что Софья отдала своё сердце ничтожному Молчалину.

Источник: DVD9 R5
Качество видео: DVDRip-AVC
Формат видео: MKV

Видео: 696->758x568 (4:3), 25 fps, H264 ~ 1962 kbps avg, 0.199 bit/pixel
Аудио: 48 kHz, Dolby Digital AC3 2.0, 192 kbps

Раздача от:
Общее
Полное имя : Gore.ot.uma.1952.DVDRip-AVC_[New-team]_by_AVP_Studio\01.mkv
Формат : Matroska
Версия формата : Version 2
Размер файла : 1010 Мбайт
Продолжительность : 1 ч. 5 м.
Общий поток : 2156 Кбит/сек
Дата кодирования : UTC 2015-12-16 14:57:23
Программа кодирования : mkvmerge v6.1.0 ('Old Devil') built on Mar 4 2013 09:10:42
Библиотека кодирования : libebml v1.3.0 + libmatroska v1.4.0

Видео
Идентификатор : 1
Формат : AVC
Формат/Информация : Advanced Video Codec
Профиль формата : High@L4.1
Параметр CABAC формата : Да
Параметр ReFrames формата : 10 кадров
Идентификатор кодека : V_MPEG4/ISO/AVC
Продолжительность : 1 ч. 5 м.
Битрейт : 1962 Кбит/сек
Ширина : 696 пикселей
Высота : 568 пикселей
Соотношение сторон : 4:3
Режим частоты кадров : Постоянный
Частота кадров : 25,000 кадров/сек
Цветовое пространство : YUV
Субдискретизация насыщенности : 4:2:0
Битовая глубина : 8 бит
Тип развёртки : Прогрессивная
Бит/(Пиксели*Кадры) : 0.199
Размер потока : 900 Мбайт (89%)
Библиотека кодирования : x264 core 130 r2273 b3065e6
Настройки программы : cabac=1 / ref=10 / deblock=1:-2:-1 / analyse=0x3:0x113 / me=umh / subme=10 / psy=1 / psy_rd=1.00:0.00 / mixed_ref=1 / me_range=32 / chroma_me=1 / trellis=2 / 8x8dct=1 / cqm=0 / deadzone=21,11 / fast_pskip=1 / chroma_qp_offset=-2 / threads=6 / lookahead_threads=1 / sliced_threads=0 / nr=0 / decimate=0 / interlaced=0 / bluray_compat=0 / constrained_intra=0 / bframes=8 / b_pyramid=2 / b_adapt=2 / b_bias=0 / direct=3 / weightb=1 / open_gop=0 / weightp=2 / keyint=250 / keyint_min=25 / scenecut=40 / intra_refresh=0 / rc=2pass / mbtree=0 / bitrate=1962 / ratetol=1.0 / qcomp=0.60 / qpmin=0 / qpmax=69 / qpstep=4 / cplxblur=20.0 / qblur=0.5 / ip_ratio=1.40 / pb_ratio=1.30 / aq=1:1.00
Default : Да
Forced : Нет

Аудио
Идентификатор : 2
Формат : AC-3
Формат/Информация : Audio Coding 3
Расширение режима : CM (complete main)
Параметр Endianness формата : Big
Идентификатор кодека : A_AC3
Продолжительность : 1 ч. 5 м.
Вид битрейта : Постоянный
Битрейт : 192 Кбит/сек
Каналы : 2 канала
Расположение каналов : Front: L R
Частота : 48,0 КГц
Метод сжатия : С потерями
Размер потока : 89,9 Мбайт (9%)
Default : Да
Forced : Нет



Скачать Горе от ума через торрент http://s018.radikal.ru/i506/1512/ae/6b6a9ce9334c.png Скачать, смотреть онлайн Горе от ума бесплантно в хорошем качестве Описание:Фильм-спектакль Государственного академического Малого театра по одноименной комедии А.С. Грибоедова.В дом санового московского ... 10 10 2
Info! Серебряная раздача, засчитывается только 50% скачанного.
Торрент: Зарегистрирован [2015-12-30 09:37] · скачан: 54 раз
Статус: √ проверено
Размер: 2.18 GB
Как cкачать? Как скачать Горе от ума через торрент | UTorrent

% Раздел Тема Автор DL S | L
Кино СССР [ 2.12 GB ] Горе от ума | | DVDRip от AVP Studio AVP Studio Скачать
1 | 0

28-11-2019 20:33  

Отключить вcю реклaмy на сайте

    Дорогой пользователь! Огромная просьба, поблагодарите релизера, оцените раздачу и оставьте свои комментарий, если Вы скачали Горе от ума через торрент бесплатно!!
    Комментировать посты могут только пользователи прошедшие не сложную регистрацию
    Показать сообщения:    


    Горе от ума через торрент
    Скачать бесплатно Горе от ума
    Горе от ума скачать торрент
    Горе от ума смотреть онлайн
    Cкачать фильм Горе от ума бесплатно
    Горе от ума скачать торрент в хорошем качестве
    Горе от ума смотреть онлайн бесплатно в хорошем качестве
    Вы не можете начинать темы
    Вы не можете отвечать на сообщения
    Вы не можете редактировать свои сообщения
    Вы не можете удалять свои сообщения
    Вы не можете голосовать в опросах
    Вы не можете прикреплять файлы к сообщениям
    Вы можете скачивать файлы