Лицензия

MVO

1

1 сезон

Лицензия

Лицензия

13

MVO

1 сезон

Deluxe Edition

pack

Рекомендуем

30

Repack

ВАЖНО

ВАЖНО

Ghostwire

RePack

jed

RePack

fifa19

RePack

RDR2

RePack

NEED FOR SPEED™ PAYBACK

RePack

Кинопоиск HD

 Острые козырьки 6 сезон

6 сезон

FAR CRY 6

RePack

Лицензия

MVO

1

1 сезон

1 сезон

Лицензия

  

На дне (Андрей Фролов) [1952, драма, DVDRip от AVP Studio]

На дне через торрент piratbit.org

Размер: 1.46 GB | Добавлен: 6 лет 8 мес. назад | Торрент скачан:23 раза
Смотреть онлайн На дне | Скачать   

30-12-2015 09:39 На дне Скачать торрент  

На дне
Страна: СССР
Производство: Мосфильм

Жанр: драма
Год выпуска: 1952
Продолжительность: 02:31:49 (01:17:46 + 01:14:03)

Перевод: Не требуется
Cубтитры: нет
Оригинальная аудиодорожка: русский

Режиссер: Андрей Фролов

В ролях:
Иосиф Раевский, Фаина Шевченко, Кира Головко, Владимир Готовцев, Сергей Яров, Алексей Жильцов, Нина Тихомирова, Алла Тарасова, Анна Дмоховская, Сергей Блинников, Владимир Ершов, Павел Массальский, Алексей Грибов, Василий Орлов, Григорий Конский, Николай Хощанов, Владимир Баталов...
Полный список актёров

Описание:
Фильм-спектакль, драма по одноименной пьесе М.Горького.
Постановка МХАТ им. М.Горького. Режиссеры-постановщики: К.С.Станиславский, В.И.Немирович-Данченко. Художник — Владимир Симов.
Мрачно и уныло протекают дни обитателей одной из ночлежек - пристанища обездоленных и униженных. Но в людях, чье существование служит страшным обвинением обществу, их породившему, сохранилось человеческое достоинство. Зреет протест против власти равнодушных. В мрачной атмосфере ночлежки звучит вдохновенный гимн Человеку, его силе и красоте.

Источник: DVD9 R5
Качество видео: DVDRip
Формат видео: AVI

Видео: 640x480 (4:3), 25 fps, XviD ~ 1238 kbps avg, 0.161 bit/pixel
Аудио: 48 kHz, MP3 2.0, 128 kbps

Раздача от:
Общее
Полное имя : Na.dne.1952.DVDRip-1,46_[New-team]_by_AVP_Studio\01.avi
Формат : AVI
Формат/Информация : Audio Video Interleave
Размер файла : 765 Мбайт
Продолжительность : 1 ч. 17 м.
Общий поток : 1376 Кбит/сек
Программа кодирования : VirtualDubMod 1.5.10.3 | www.virtualdub-fr.org || (build 2550/release)
Библиотека кодирования : VirtualDubMod build 2550/release

Видео
Идентификатор : 0
Формат : MPEG-4 Visual
Профиль формата : Advanced Simple@L5
Параметр BVOP формата : 1
Параметр QPel формата : Нет
Параметр GMC формата : Без точки перехода
Параметр матрицы формата : Выборочная
Идентификатор кодека : XVID
Идентификатор кодека/Подсказка : XviD
Продолжительность : 1 ч. 17 м.
Битрейт : 1238 Кбит/сек
Ширина : 640 пикселей
Высота : 480 пикселей
Соотношение сторон : 4:3
Частота кадров : 25,000 кадров/сек
Цветовое пространство : YUV
Субдискретизация насыщенности : 4:2:0
Битовая глубина : 8 бит
Тип развёртки : Прогрессивная
Метод сжатия : С потерями
Бит/(Пиксели*Кадры) : 0.161
Размер потока : 689 Мбайт (90%)
Библиотека кодирования : XviD 1.2.1 (UTC 2008-12-04)

Аудио
Идентификатор : 1
Формат : MPEG Audio
Версия формата : Version 1
Профиль формата : Layer 3
Идентификатор кодека : 55
Идентификатор кодека/Подсказка : MP3
Продолжительность : 1 ч. 17 м.
Вид битрейта : Постоянный
Битрейт : 128 Кбит/сек
Каналы : 2 канала
Частота : 48,0 КГц
Метод сжатия : С потерями
Размер потока : 71,2 Мбайт (9%)
Выравнивание : Соединение по промежуткам
Продолжительность промежутка : 40 мс. (1,00 видеокадр)
Время предзагрузки промежутка : 504 мс.
Библиотека кодирования : LAME3.99r
Настройки программы : -m s -V 4 -q 2 -lowpass 17 -b 128



Скачать На дне через торрент http://s018.radikal.ru/i511/1512/a5/df5dd1fb06a6.png Скачать, смотреть онлайн На дне бесплантно в хорошем качестве Описание:Фильм-спектакль, драма по одноименной пьесе М.Горького.Постановка МХАТ им. М.Горького. Режиссеры-постановщики: К.С.Станиславский, ... 5 10 1
Info! Серебряная раздача, засчитывается только 50% скачанного.
Торрент: Зарегистрирован [2015-12-30 09:39] · скачан: 23 раз
Статус: √ проверено
Размер: 1.46 GB
Как cкачать? Как скачать На дне через торрент | UTorrent

% Раздел Тема Автор DL S | L
Кино СССР [ 2.18 GB ] На дне | | DVDRip-AVC от AVP Studio AVP Studio Скачать
1 | 0
Кино СССР [ 2.18 GB ] На дне | | DVDRip от AVP Studio AVP Studio Скачать
1 | 0

28-11-2019 20:33  

Отключить вcю реклaмy на сайте

    Дорогой пользователь! Огромная просьба, поблагодарите релизера, оцените раздачу и оставьте свои комментарий, если Вы скачали На дне через торрент бесплатно!!
    Комментировать посты могут только пользователи прошедшие не сложную регистрацию
    Показать сообщения:    


    На дне через торрент
    Скачать бесплатно На дне
    На дне скачать торрент
    На дне смотреть онлайн
    Cкачать фильм На дне бесплатно
    На дне скачать торрент в хорошем качестве
    На дне смотреть онлайн бесплатно в хорошем качестве
    Вы не можете начинать темы
    Вы не можете отвечать на сообщения
    Вы не можете редактировать свои сообщения
    Вы не можете удалять свои сообщения
    Вы не можете голосовать в опросах
    Вы не можете прикреплять файлы к сообщениям
    Вы можете скачивать файлы