Доктор Стрэндж

Лицензия

Добыча

Дубляж

Дом дракона

1 сезон

Тор

Дубляж

В эфире

Дубляж

Там, где раки поют

MVO

Властелин колец

1 сезон

Deluxe

pack

Рекомендуем

30

Пиратка

ВАЖНО

ВАЖНО

Ghostwire

Пиратка

jed

RePack

nioh2

RePack

RDR2

RePack

NEED FOR SPEED™ PAYBACK

RePack

скачать торрент

Кинопоиск HD

Острые козырьки 6 сезон

6 сезон

FAR CRY 6

RePack

скачать торрент

Лицензия

скачать торрент

MVO

1

1 сезон

скачать торрент

1 сезон

скачать торрент

Лицензия

  

Чирак / Chi-Raq (Спайк Ли) [2015г., драма, ВDRip 720р] Любительский двухголосый [Parovoz Production]

Чирак через торрент piratbit.org

Размер: 5.79 GB | Добавлен: 6 лет 10 мес. назад | Торрент скачан:34 раза
Смотреть онлайн | Скачать   

06-01-2016 16:55 Чирак Скачать торрент  

Чирак / Chi-Raq Год выпуска: 2015
Страна: США / 40 Acres & a Mule Filmworks, Amazon Studios
Жанр: драма
Продолжительность: 02:07:01
Перевод: Любительский двухголосый;
Тип релиза: Parovoz Production
Режиссер: Спайк Ли
В ролях: Ник Кэннон, Тейона Паррис, Уэсли Снайпс, Анджела Бассетт, Сэмюэл Л. Джексон, Джон Кьюсак, Дженнифер Хадсон, Дэвид Патрик Келли, Д.Б. Суини, Дэйв Шаппелл
Описание: Фильм сосредоточен на растущем насилии в Чикаго.

Качество: ВDRip 720р
Формат: MKV
Видео кодек: AVC
Аудио кодек: AC3, DTS
Видео: MPEG-4-AVC, 4719 Кбит/с, 1280x536
Аудио 1: Russian 48 kHz, AC3 Dolby Digital, 2ch, ~384 kbps
Аудио 2: English 48 kHz, DTS Dolby Digital, 6ch, ~1509 kbps
Cубтитры: Russian (forced)
Общее
Уникальный идентификатор : 231480400424904276965380380644243056655 (0xAE2580E38594728E80DA72ED03FEA80F)
Полное имя : C:\торрент\4iRaQ.2015.L2.BDRip.720p.mkv
Формат : Matroska
Версия формата : Version 4 / Version 2
Размер файла : 5,79 Гбайт
Продолжительность : 2 ч. 6 м.
Общий поток : 6532 Кбит/сек
Дата кодирования : UTC 2016-01-06 13:46:11
Программа кодирования : mkvmerge v8.7.0 ('All of the above') 64bit
Библиотека кодирования : libebml v1.3.3 + libmatroska v1.4.4
DURATION : 01:46:40.000000000
NUMBER_OF_FRAMES : 3
NUMBER_OF_BYTES : 231
_STATISTICS_WRITING_APP : mkvmerge v8.7.0 ('All of the above') 64bit
_STATISTICS_WRITING_DATE_UTC : 2016-01-06 13:46:11
_STATISTICS_TAGS : BPS DURATION NUMBER_OF_FRAMES NUMBER_OF_BYTES

Видео
Идентификатор : 1
Формат : AVC
Формат/Информация : Advanced Video Codec
Профиль формата : High@L4.1
Параметр CABAC формата : Да
Параметр ReFrames формата : 5 кадров
Идентификатор кодека : V_MPEG4/ISO/AVC
Продолжительность : 2 ч. 6 м.
Битрейт : 4719 Кбит/сек
Ширина : 1280 пикселей
Высота : 536 пикселей
Соотношение сторон : 2,40:1
Режим частоты кадров : Постоянный
Частота кадров : 23,976 кадра/сек
Цветовое пространство : YUV
Субдискретизация насыщенности : 4:2:0
Битовая глубина : 8 бит
Тип развёртки : Прогрессивная
Бит/(Пиксели*Кадры) : 0.287
Размер потока : 4,00 Гбайт (69%)
Библиотека кодирования : x264 core 148 r2638 7599210
Настройки программы : cabac=1 / ref=5 / deblock=1:0:0 / analyse=0x3:0x133 / me=umh / subme=7 / psy=1 / psy_rd=1.00:0.00 / mixed_ref=1 / me_range=16 / chroma_me=1 / trellis=1 / 8x8dct=1 / cqm=0 / deadzone=21,11 / fast_pskip=0 / chroma_qp_offset=-2 / threads=17 / lookahead_threads=2 / sliced_threads=0 / nr=0 / decimate=1 / interlaced=0 / bluray_compat=0 / constrained_intra=0 / bframes=3 / b_pyramid=2 / b_adapt=1 / b_bias=0 / direct=1 / weightb=1 / open_gop=0 / weightp=2 / keyint=250 / keyint_min=23 / scenecut=40 / intra_refresh=0 / rc_lookahead=40 / rc=2pass / mbtree=1 / bitrate=4719 / ratetol=1.0 / qcomp=0.60 / qpmin=0 / qpmax=69 / qpstep=4 / cplxblur=20.0 / qblur=0.5 / ip_ratio=1.40 / aq=1:1.00
Язык : English
Default : Да
Forced : Нет
DURATION : 02:06:50.615000000
NUMBER_OF_FRAMES : 182472
NUMBER_OF_BYTES : 4411117321
_STATISTICS_WRITING_APP : mkvmerge v8.7.0 ('All of the above') 64bit
_STATISTICS_WRITING_DATE_UTC : 2016-01-06 13:46:11
_STATISTICS_TAGS : BPS DURATION NUMBER_OF_FRAMES NUMBER_OF_BYTES

Аудио #1
Идентификатор : 2
Формат : AC-3
Формат/Информация : Audio Coding 3
Расширение режима : CM (complete main)
Параметр Endianness формата : Big
Идентификатор кодека : A_AC3
Продолжительность : 2 ч. 6 м.
Вид битрейта : Постоянный
Битрейт : 384 Кбит/сек
Каналы : 2 канала
Расположение каналов : Front: L R
Частота : 48,0 КГц
Метод сжатия : С потерями
Размер потока : 348 Мбайт (6%)
Язык : Russian
Default : Да
Forced : Нет

Аудио #2
Идентификатор : 3
Формат : DTS
Формат/Информация : Digital Theater Systems
Режим : 16
Параметр Endianness формата : Big
Идентификатор кодека : A_DTS
Продолжительность : 2 ч. 6 м.
Вид битрейта : Постоянный
Битрейт : 1509 Кбит/сек
Каналы : 6 каналов
Расположение каналов : Front: L C R, Side: L R, LFE
Частота : 48,0 КГц
Битовая глубина : 24 бит
Метод сжатия : С потерями
Размер потока : 1,34 Гбайт (23%)
Язык : English
Default : Нет
Forced : Нет

Текст
Идентификатор : 4
Формат : UTF-8
Идентификатор кодека : S_TEXT/UTF8
Идентификатор кодека/Информация : UTF-8 Plain Text
Язык : Russian
Default : Да
Forced : Да

Меню
00:00:00.000 : en:00:00:00.000
00:10:01.851 : en:00:10:01.851
00:18:54.050 : en:00:18:54.050
00:25:03.919 : en:00:25:03.919
00:33:15.869 : en:00:33:15.869
00:40:45.485 : en:00:40:45.485
00:50:01.707 : en:00:50:01.707
00:59:50.378 : en:00:59:50.378
01:08:11.796 : en:01:08:11.796
01:14:49.694 : en:01:14:49.694
01:21:30.094 : en:01:21:30.094
01:27:20.485 : en:01:27:20.485
01:35:51.996 : en:01:35:51.996
01:41:06.143 : en:01:41:06.143
01:49:22.681 : en:01:49:22.681
01:57:32.462 : en:01:57:32.462
Внимание, в релизе присутствует реклама казино. Что делать? ждать когда выложат релиз без этого (в них всегда указанно что релиз без рекламы) либо лицензию. Запретить такие темы нельзя, пока нет альтернативы.



Скачать Чирак через торрент https://pic1.kartinco.top/images/10/jgean.jpg Скачать, смотреть онлайн Чирак бесплантно в хорошем качестве Описание: Фильм сосредоточен на растущем насилии в ... 9.8 10 4
Info! Золотая раздача, скачанное не засчитывается.
Торрент: Зарегистрирован [2016-01-06 16:55] · скачан: 34 раз
Статус: T временная
Размер: 5.79 GB
Как cкачать? Как скачать Чирак через торрент | UTorrent

% Раздел Тема Автор DL S | L
T Фильмы 2015 (Звук TS, Cam, VO, DVO) [ 1.37 GB ] Чирак / Chi-Raq | | HDRip diletant Скачать
1 | 0

28-11-2019 20:33  


Отключить вcю реклaмy на сайте, в т.ч. и в плеере онлайн просмотра!

    Дорогой пользователь! Огромная просьба, поблагодарите релизера, оцените раздачу и оставьте свои комментарий, если Вы скачали Чирак через торрент бесплатно!!
    Комментировать посты могут только пользователи прошедшие не сложную регистрацию
    Показать сообщения:    


    Чирак через торрент
    Скачать бесплатно Чирак
    Чирак скачать торрент
    Чирак смотреть онлайн
    Cкачать фильм Чирак бесплатно
    Чирак скачать торрент в хорошем качестве
    Чирак смотреть онлайн бесплатно в хорошем качестве
    Вы не можете начинать темы
    Вы не можете отвечать на сообщения
    Вы не можете редактировать свои сообщения
    Вы не можете удалять свои сообщения
    Вы не можете голосовать в опросах
    Вы не можете прикреплять файлы к сообщениям
    Вы можете скачивать файлы
    Чирак / Chi-Raq [2015г., драма, ВDRip 720р] Любительский двухголосый [Parovoz Production] смотреть онлайн, скачать торрент picoco.icu