Присоединяйтесь к нам в Telegram!, здесь всегда актуальный адрес сайта, оперативная поддержка и многое другое!!

>

5.9

iTunes

7.4

iTunes

9.4

1 сезон

1

7.4

2 сезон

7.2

iTunes

7.3

1 сезон

13

6.1

iTunes

8.3

GOG

30

ULTIMATE

pack

9.9

Лицензия

ВАЖНО

ИГРА 18+

pack

7.3

RePack

MK11

7.7

RePack

jed

7.8

RePack

fifa19

8.5

RePack

RDR2

RePack

NEED FOR SPEED™ PAYBACK

5 сезон

9 сезон

Бесстыжие 9 сезон

Все сериалы

все сериалы на PB.wtf

RePack

FAR CRY 5

Anonymous, доброй ночи, мы катастрофически не успеваем собрать деньги на оплату серверов, помогите нам пожалуйста 5,10,15р., для нас важна любая помощь . В качестве благодарности мы отключим Вам всю рекламу на сайте (укажите свой ник в строку Ваше имя)!

×
  
Magnet ссылка

Ривер 9 / Rivers 9 (Крис В. Фриман / Chris W. Freeman, Джастин Джонс / Justin Jones) [2015, США, боевик, комедия, криминал, WEB-DLRip] DVO [Parovoz Production] piratbit.org

Ривер 9 через торрент piratbit.org

Размер: 1.37 GB | Добавлен: 5 лет 10 мес. назад | Торрент скачан:209 раз
Смотреть онлайн Ривер 9 | Скачать    Ребята, помогите собрать деньги на оплату серверов!!!

08-01-2016 02:13 Ривер 9 Скачать торрент  

Rivers 9
«Дом всегда побеждает... не на сей раз»


  • Год выпуска: 2015
  • Страна: США
  • Жанр: боевик, комедия, криминал
  • Продолжительность: 01:34:39
  • Перевод: Любительский (двухголосый) [Parovoz Production]

  • Режиссер: Крис В. Фриман / Chris W. Freeman, Джастин Джонс / Justin Jones
  • В ролях:

    Винни Джонс (Ray Kaplan), Элизабет Рём (Grace Rivers), Томас Дауни (Jake Rivers), Кайла Карлайл (Skye Rivers), Си Томас Хауэлл (Sheriff Quentin), Джейми Кеннеди (Rob), Нил Браун мл. (Virgil Dobbs), Лесли Истербрук (Martha), Эд О’Росс (Covington), Адриан Кирк (Desiree), Крэйг Аренс (Mario), Джоан М. Блэр (Sue Wanders)


  • Миры наркоторговли и игорного бизнеса чрезвычайно жестоки. Здесь нельзя никому доверять, а нож в спину могут воткнуть в каждую минуту. То и дело летят головы, а полиция каждый день находит новые трупы людей, которые, так или иначе, имели отношение к преступному миру. На чьей стороне правда, когда окончится эта негласная война и кто победит в игре без правил?
  • Рейтинг:



  • Качество: WEB-DLRip
  • Формат: :AVI
  • Видео кодек: XviD
  • Аудио кодек: AC3
  • Видео: 720x400 (16:9), 1928 kbps, 25 fps, 0,268 bpp
  • Аудио: 2.0 / 48 kHz / 128 kbps / 16 bit
  • Релиз от: GEKADOL

    Код:

    General
    Complete name                            : G:\R1vErs.9.2015.L2.WEB-DLRip.1400MB.avi
    Format                                   : AVI
    Format/Info                              : Audio Video Interleave
    File size                                : 1.37 GiB
    Duration                                 : 1h 34mn
    Overall bit rate                         : 2 066 Kbps
    Writing application                      : VirtualDubMod 1.5.10.3 | www.virtualdub-fr.org || (build 2550/release)
    Writing library                          : VirtualDubMod build 2550/release

    Video
    ID                                       : 0
    Format                                   : MPEG-4 Visual
    Format profile                           : Advanced Simple@L5
    Format settings, BVOP                    : 2
    Format settings, QPel                    : No
    Format settings, GMC                     : No warppoints
    Format settings, Matrix                  : Default (MPEG)
    Codec ID                                 : XVID
    Codec ID/Hint                            : XviD
    Duration                                 : 1h 34mn
    Bit rate                                 : 1 928 Kbps
    Width                                    : 720 pixels
    Height                                   : 400 pixels
    Display aspect ratio                     : 16:9
    Frame rate                               : 25.000 fps
    Color space                              : YUV
    Chroma subsampling                       : 4:2:0
    Bit depth                                : 8 bits
    Scan type                                : Progressive
    Compression mode                         : Lossy
    Bits/(Pixel*Frame)                       : 0.268
    Stream size                              : 1.28 GiB (93%)
    Writing library                          : XviD 1.2.1 (UTC 2008-12-04)

    Audio
    ID                                       : 1
    Format                                   : AC-3
    Format/Info                              : Audio Coding 3
    Mode extension                           : CM (complete main)
    Codec ID                                 : 2000
    Duration                                 : 1h 34mn
    Bit rate mode                            : Constant
    Bit rate                                 : 128 Kbps
    Channel(s)                               : 2 channels
    Channel positions                        : Front: L R
    Sampling rate                            : 48.0 KHz
    Bit depth                                : 16 bits
    Compression mode                         : Lossy
    Stream size                              : 86.7 MiB (6%)
    Alignment                                : Split accross interleaves
    Interleave, duration                     : 40 ms (1.00 video frame)
    Interleave, preload duration             : 500 ms




    Скриншоты:



    piratbit.org
    !schultz писал(а):

    Внимание, в релизе присутствует реклама казино. Что делать? ждать когда выложат релиз без этого (в них всегда указанно что релиз без рекламы) либо лицензию. Запретить такие темы нельзя, пока нет альтернативы.



  • Скачать Ривер 9 через торрент http://i75.fastpic.ru/big/2016/0108/9b/e97e690d691630a600be01724b8e629b.jpg Скачать, смотреть онлайн Ривер 9 бесплантно в хорошем качестве qw.png Миры наркоторговли и игорного бизнеса чрезвычайно жестоки. Здесь нельзя никому доверять, а нож в спину могут воткнуть в каждую ... 7.5 10 10
    Торрент: Зарегистрирован [2016-01-08 02:13] · скачан: 209 раз
    Статус: T временная
    Размер: 1.37 GB
    Как cкачать? Как скачать Ривер 9 через торрент | UTorrent

    % Раздел Тема Автор DL S | L
    T Фильмы (WEB-DL 720p, 1080p) [ 2.69 GB ] Ривер 9 / Rivers 9 [2015 WEB-DL 720p] DVO [Parovoz Production] + ENG GEKADOL Скачать
    1 | 0

    28-11-2019 20:33  

    Отключить всю рекламу на сайте

      Дорогой пользователь! Огромная просьба, поблагодарите релизера, оцените раздачу и оставьте свои комментарий, если Вы скачали Ривер 9 через торрент бесплатно!
      Комментировать посты могут только пользователи прошедшие не сложную регистрацию
      Показать сообщения:    

      Ривер 9 через торрент
      Скачать бесплатно Ривер 9
      Ривер 9 скачать торрент
      Ривер 9 смотреть онлайн
      Cкачать фильм Ривер 9 бесплатно
      Ривер 9 скачать торрент в хорошем качестве
      Ривер 9 смотреть онлайн бесплатно в хорошем качестве


      Вы не можете начинать темы
      Вы не можете отвечать на сообщения
      Вы не можете редактировать свои сообщения
      Вы не можете удалять свои сообщения
      Вы не можете голосовать в опросах
      Вы не можете прикреплять файлы к сообщениям
      Вы можете скачивать файлы