Присоединяйтесь к нам в Telegram!, здесь всегда актуальный адрес сайта, оперативная поддержка и многое другое!!

>

5.9

iTunes

7.4

iTunes

9.4

1 сезон

1

7.4

2 сезон

7.2

iTunes

7.3

1 сезон

13

6.1

iTunes

8.3

GOG

30

ULTIMATE

pack

9.9

Лицензия

ВАЖНО

ИГРА 18+

pack

7.3

RePack

MK11

7.7

RePack

jed

7.8

RePack

fifa19

8.5

RePack

RDR2

RePack

NEED FOR SPEED™ PAYBACK

5 сезон

9 сезон

Бесстыжие 9 сезон

Все сериалы

все сериалы на PB.wtf

RePack

FAR CRY 5

Anonymous, доброе утро, мы катастрофически не успеваем собрать деньги на оплату серверов, помогите нам пожалуйста 5,10,15р., для нас важна любая помощь . В качестве благодарности мы отключим Вам всю рекламу на сайте (укажите свой ник в строку Ваше имя)!

×
  
Magnet ссылка

Песок / The Sand (Исаак Габаефф) [2015г., ужасы, фантастика, HDRip] Любительский одноголосый [Xixidok] piratbit.org

Песок через торрент piratbit.org

Размер: 1.59 GB | Добавлен: 5 лет 10 мес. назад | Торрент скачан:256 раз
Смотреть онлайн Песок | Скачать    Ребята, помогите собрать деньги на оплату серверов!!!

09-01-2016 17:41 Песок Скачать торрент  

Песок / The Sand««This Beach is Killer»»
Год выпуска: 2015
Страна: США
Жанр: ужасы, фантастика
Продолжительность: 01:24:09

  • Перевод: Любительский одноголосый [Xixidok]
  • Оригинальная аудиодорожка: Нет

Режиссер: Исаак Габаефф
В ролях: Брук Батлер (Kaylee), Джейми Кеннеди (Beach Patrol Alex), Митчел Муссо (Mitch), Дин Гейер (Jonah), Мэган Холдер (Chanda), Клео Берри (Gilbert), Синтия Марелл (Ronnie), Гектор Дэвид мл. (Vance), Никки Ли (Marsha), Брайан Бун (Julian), Эталвия Кэшин (Heather), Jennifer Churchich (Girlfriend)
Описание: Несколько студентов решили организовать грандиозную вечеринку, на которой они собрались пить, отдыхать на красивом пляже, на берегу океана. Однако уже на утро наступает момент, когда нужно вернуться в реальный мир, молодые люди понимают, что оказываются в заложниках неизвестного монстра, который атакует их прямиком из песка, который не дает им ступить шаг.
Первое, о чем они подумали – своими ночными действиям молодые люди явно, что-то сделали не так, и природа решила наказать их. Однако позже они обнаружили яйцо, неизвестного существа, и поняли, что все очень серьезно, и они оказались в западне у неизвестного монстра.




  • Тип релиза: HDRip
  • Формат: AVI
  • Видео кодек: XviD | Аудио кодек: AC3
  • Видео: XviD, 720x304 (2.35:1), 1929 kbps, 23,976 fps, 0,368 bpp
  • Аудио №1:AC3 / 5.1 / 48 kHz / 384 kbps / 16 bit
  • Аудио №2:AC3 / 5.1 / 48 kHz / 384 kbps / 16 bit:
  • Сэмпл: скачать
General
Complete name : C:\торрент\The.Sand.2015.HDRip.XviD.avi
Format : AVI
Format/Info : Audio Video Interleave
File size : 1.59 GiB
Duration : 1h 24mn
Overall bit rate : 2 712 Kbps
Writing application : VirtualDubMod 1.5.10.2 (build 2540/release)
Writing library : VirtualDubMod build 2540/release

Video
ID : 0
Format : MPEG-4 Visual
Format profile : Advanced Simple@L5
Format settings, BVOP : 2
Format settings, QPel : No
Format settings, GMC : No warppoints
Format settings, Matrix : Default (H.263)
Muxing mode : Packed bitstream
Codec ID : XVID
Codec ID/Hint : XviD
Duration : 1h 24mn
Bit rate : 1 930 Kbps
Width : 720 pixels
Height : 304 pixels
Display aspect ratio : 2.35:1
Frame rate : 23.976 fps
Color space : YUV
Chroma subsampling : 4:2:0
Bit depth : 8 bits
Scan type : Progressive
Compression mode : Lossy
Bits/(Pixel*Frame) : 0.368
Stream size : 1.13 GiB (71%)
Writing library : XviD 66

Audio #1
ID : 1
Format : AC-3
Format/Info : Audio Coding 3
Mode extension : CM (complete main)
Codec ID : 2000
Duration : 1h 24mn
Bit rate mode : Constant
Bit rate : 384 Kbps
Channel(s) : 6 channels
Channel positions : Front: L C R, Side: L R, LFE
Sampling rate : 48.0 KHz
Bit depth : 16 bits
Compression mode : Lossy
Stream size : 231 MiB (14%)
Alignment : Split accross interleaves
Interleave, duration : 42 ms (1.00 video frame)
Interleave, preload duration : 500 ms

Audio #2
ID : 2
Format : AC-3
Format/Info : Audio Coding 3
Mode extension : CM (complete main)
Codec ID : 2000
Duration : 1h 24mn
Bit rate mode : Constant
Bit rate : 384 Kbps
Channel(s) : 6 channels
Channel positions : Front: L C R, Side: L R, LFE
Sampling rate : 48.0 KHz
Bit depth : 16 bits
Compression mode : Lossy
Stream size : 231 MiB (14%)
Alignment : Aligned on interleaves
Interleave, duration : 42 ms (1.00 video frame)
Interleave, preload duration : 512 ms
piratbit.org



Скачать Песок через торрент http://i76.fastpic.ru/big/2016/0109/88/63af021ca65144c5ddd660e313259088.jpg Скачать, смотреть онлайн Песок бесплантно в хорошем качестве Описание: Несколько студентов решили организовать грандиозную вечеринку, на которой они собрались пить, отдыхать на красивом пляже, на ... 9 10 8
Info! Золотая раздача, скачанное не засчитывается.
Торрент: Зарегистрирован [2016-01-09 17:41] · скачан: 256 раз
Статус: T временная
Размер: 1.59 GB
Как cкачать? Как скачать Песок через торрент | UTorrent

% Раздел Тема Автор DL S | L
T Релизы по Парсеру [Игры, Сериалы и Фильмы и другое...] [ 2.74 GB ] От этого песок становится красным / It Stains the Sands Red [2016 WEB-DL 720p] MVO [GreenРай Studio] bober100 Скачать
1 | 0
Фильмы с авторской озвучкой [ 1.37 GB ] От этого песок становится красным / It Stains the Sands Red [ 2016 WEB-DLRip] [AVO] от ExKinoRay Enigma2010 Скачать
1 | 0
T Фильмы 2016 [DVDrip, WEB-DLRip, HDrip] (DUB, MVO) [ 1.36 GB ] От этого песок становится красным / It Stains the Sands Red [2016 WEB-DLRip] MVO [GreenРай Studio] bober100 Скачать
1 | 0


Последний раз редактировалось: diletant (2016-01-09 18:03), всего редактировалось 1 раз

28-11-2019 20:33  

Отключить всю рекламу на сайте

09-01-2016 17:52 Песок Скачать торрент  

"В фильме отсутствуют вменяемые диалоги, мало актёрской игры, нет качественных спецэффектов и осмысленной интриги. Однако иногда кино оказывается настолько абсурдным и ужасным, что даже становится привлекательным — в точности, как фильмы Эда Вуда. Именно такая история происходит с «Песком» Габаеффа — с этим фильмом всё настолько плохо, что хочется смотреть хотя бы потому, чтобы узнать, какую глупость авторы приготовили дальше." прекрасно сказано к этому фильму)))piratbit.org



09-01-2016 18:01 Песок Скачать торрент  

мне одному кажется, что достаточно было прочтения описания.. фильм полностью пересказан..piratbit.org



09-01-2016 18:06 Песок Скачать торрент  

а есть нормальное видео с этими актрисами?piratbit.org



09-01-2016 18:22 Песок Скачать торрент  

ну как же в таком кино без титек piratbit.org



09-01-2016 19:15 Песок Скачать торрент  

хороший материал для качественной порнушки))))piratbit.org



09-01-2016 20:30 Песок Скачать торрент  

Stopper68 писал(а):

хороший материал для качественной порнушки))))

Воистину!.. piratbit.org



09-01-2016 21:27 Песок Скачать торрент  

Фильм - бадья, действующие лица - идиоты... Раздающему - плюс за трудыpiratbit.org



15-01-2016 09:53 Песок Скачать торрент  

На разок можно глянуть, но если пропустите то ничего не потеряете)piratbit.org



    Дорогой пользователь! Огромная просьба, поблагодарите релизера, оцените раздачу и оставьте свои комментарий, если Вы скачали Песок через торрент бесплатно!
    Комментировать посты могут только пользователи прошедшие не сложную регистрацию
    Показать сообщения:    

    Песок через торрент
    Скачать бесплатно Песок
    Песок скачать торрент
    Песок смотреть онлайн
    Cкачать фильм Песок бесплатно
    Песок скачать торрент в хорошем качестве
    Песок смотреть онлайн бесплатно в хорошем качестве


    Вы не можете начинать темы
    Вы не можете отвечать на сообщения
    Вы не можете редактировать свои сообщения
    Вы не можете удалять свои сообщения
    Вы не можете голосовать в опросах
    Вы не можете прикреплять файлы к сообщениям
    Вы можете скачивать файлы