Присоединяйтесь к нам в Telegram!, здесь всегда актуальный адрес сайта, оперативная поддержка и многое другое!!

>

5.9

iTunes

7.4

iTunes

9.4

1 сезон

1

7.4

2 сезон

7.2

iTunes

7.3

1 сезон

13

6.1

iTunes

8.3

GOG

30

ULTIMATE

pack

9.9

Лицензия

ВАЖНО

ИГРА 18+

pack

7.3

RePack

MK11

7.7

RePack

jed

7.8

RePack

fifa19

8.5

RePack

RDR2

RePack

NEED FOR SPEED™ PAYBACK

5 сезон

9 сезон

Бесстыжие 9 сезон

Все сериалы

все сериалы на PB.wtf

RePack

FAR CRY 5

Anonymous, добрый день, мы катастрофически не успеваем собрать деньги на оплату серверов, помогите нам пожалуйста 5,10,15р., для нас важна любая помощь . В качестве благодарности мы отключим Вам всю рекламу на сайте (укажите свой ник в строку Ваше имя)!

×
  
Magnet ссылка

Бунт / Riot (Джон Лойд) [2015, боевик, HDRip] Любительский (двухголосый) [Parovoz Production] piratbit.org

Бунт через торрент piratbit.org

Размер: 1.37 GB | Добавлен: 5 лет 10 мес. назад | Торрент скачан:418 раз
Смотреть онлайн Бунт | Скачать    Ребята, помогите собрать деньги на оплату серверов!!!

10-01-2016 15:23 Бунт Скачать торрент  

Бунт / Riot«Caged to kill»

  • Год выхода: 2015
  • Жанр: боевик
  • Страна: США
  • Продолжительность: 01:23:56
  • Перевод: Любительский (двухголосый) [Parovoz Production]
  • Режиссер: Джон Лойд
  • В ролях:

    Мэттью Риз (Jack Stone), Дольф Лундгрен (William), Даниэль Чакран (Alena), Чак Лиделл (Balam), Рен Барнс (Female Jail Inmate), Дуй Бек (S.W.A.T. Team Leader), Никита Боголюбов (Semyon), LizAnne Chapman (Female Jail Inmate), Барбара Кросс (Inmate), Пит Дэй (Mayor George Wilson), Ренни Грэймс (Trisha Sinclair), Brandon Grundy (Big Bad Inmate)


  • Джек Стоун целенаправленно организовывает ограбление банка, чтобы быть попасть в тюрьму к пресловутому российскому вору в законе, Баламу. Балам является больше, чем обычный преступник; он очень хитрый и опасный авторитет, который контролирует полицию из-за решетки. Он живет в за решеткой в качестве прикрытия для своей реальной власти. Его камера - это роскошная отдельная комната, которая создана специально для него и недоступна для большинства заключенных. Даже смотритель тюрьмы опасается, приближаясь к его камере. Тем не менее, даже в окружении своих верных приспешников и охранников, Балам не знает что Джек идет за ним, чтобы отомстить за убитую семью...

  • Качество: HDRip
  • Формат: AVI
  • Видео кодек: XviD
  • Аудио кодек: AC3
  • Видео: XviD, 720x400 (16:9), 1847 kbps, 25 fps, 0,257 bpp
  • Аудио: AC3 / 2.0 / 48 kHz / 384 kbps / 16 bit

    Код:

    General
    Complete name                            : H:\Bun3.2015.L2.HDRip.1400MB.avi
    Format                                   : AVI
    Format/Info                              : Audio Video Interleave
    File size                                : 1.37 GiB
    Duration                                 : 1h 23mn
    Overall bit rate                         : 2 333 Kbps
    Writing application                      : VirtualDubMod 1.5.10.3 | www.virtualdub-fr.org || (build 2550/release)
    Writing library                          : VirtualDubMod build 2550/release

    Video
    ID                                       : 0
    Format                                   : MPEG-4 Visual
    Format profile                           : Advanced Simple@L5
    Format settings, BVOP                    : 2
    Format settings, QPel                    : No
    Format settings, GMC                     : No warppoints
    Format settings, Matrix                  : Default (MPEG)
    Codec ID                                 : XVID
    Codec ID/Hint                            : XviD
    Duration                                 : 1h 23mn
    Bit rate                                 : 1 848 Kbps
    Width                                    : 720 pixels
    Height                                   : 400 pixels
    Display aspect ratio                     : 16:9
    Frame rate                               : 25.000 fps
    Color space                              : YUV
    Chroma subsampling                       : 4:2:0
    Bit depth                                : 8 bits
    Scan type                                : Progressive
    Compression mode                         : Lossy
    Bits/(Pixel*Frame)                       : 0.257
    Stream size                              : 1.08 GiB (79%)
    Writing library                          : XviD 1.2.1 (UTC 2008-12-04)

    Audio
    ID                                       : 1
    Format                                   : AC-3
    Format/Info                              : Audio Coding 3
    Mode extension                           : CM (complete main)
    Codec ID                                 : 2000
    Duration                                 : 1h 23mn
    Bit rate mode                            : Constant
    Bit rate                                 : 384 Kbps
    Channel(s)                               : 2 channels
    Channel positions                        : Front: L R
    Sampling rate                            : 48.0 KHz
    Bit depth                                : 16 bits
    Compression mode                         : Lossy
    Stream size                              : 231 MiB (16%)
    Alignment                                : Split accross interleaves

    Скриншоты:


    © Оформление by -Lexx- piratbit.org
    !-Lexx- писал(а):

    Внимание, в релизе присутствует реклама казино. Что делать? Ждать когда выложат релиз без этого (в них всегда указанно что релиз без рекламы) либо лицензию. Запретить такие темы нельзя, пока нет альтернативы.



  • Скачать Бунт через торрент https://pic1.kartinco.top/images/61/stazu.jpg Скачать, смотреть онлайн Бунт бесплантно в хорошем качестве qw.png Джек Стоун целенаправленно организовывает ограбление банка, чтобы быть попасть в тюрьму к пресловутому российскому вору в законе, ... 8.5 10 12
    Торрент: Зарегистрирован [2016-01-10 15:23] · скачан: 418 раз
    Статус: T временная
    Размер: 1.37 GB
    Как cкачать? Как скачать Бунт через торрент | UTorrent

    % Раздел Тема Автор DL S | L
    Гонзо [ 2.34 GB ] Горячие мамочки устраивают бунт втроем / Hot Milfs Make A Riot Threesome [2020 18+ Teen Big Boobs Bubble Butt Creampie Cum Swapping Facial Cumshot Lingerie Mature Threesome WEB-DLRip] Pir@tya2010 Скачать
    2 | 0
    Фильмы с авторской озвучкой [ 1.46 GB ] Бунт в тюремном блоке №11 / Riot in Cell Block 11 [1954 нуар BDRip] [AVO] killermax2013 Скачать
    1 | 0
    Фильмы 2015 [DVDrip, WEB-DLRip, HDrip] [ 1.37 GB ] Джек Стоун / Бунт / Riot [2015 HDRip] MVO Ворон Скачать
    1 | 0
    Фильмы 2015 (Звук TS, Cam, VO, DVO) [ 741 MB ] Джек Стоун / Бунт / Riot [2015 HDRip by _Один_777] DVO без рекламы Один 777 Скачать
    1 | 0
    T Фильмы [HD 720p, 1080p] (Звук Cam, VO, DVO) [ 5.98 GB ] Клуб бунтарей / The Riot Club [2014 BDRip 720p] DVO [Артём Белоконский & Анжелика Чумакова] + ENG GEKADOL Скачать
    1 | 0
    T Фильмы 2014 (Звук TS, Cam, VO, DVO) [ 1.37 GB ] Клуб бунтарей / The Riot Club [2014 HDRip] DVO [Артём Белоконский & Анжелика Чумакова] GEKADOL Скачать
    1 | 0
    Гонзо [ 1.36 GB ] Бабий бунт 1 / Riot Sluts 1 [2004 Anal Oral Group DVDRip Оригинал] Pir@tya2010 Скачать
    1 | 0

    28-11-2019 20:33  

    Отключить всю рекламу на сайте

    10-01-2016 19:06 Бунт Скачать торрент  

    Глазам не верю что этот фильм 2015 года.Чущь несусветная.Такой херни давно не видел.Раздающему спасибо за труд.piratbit.org



    10-01-2016 20:14 Бунт Скачать торрент  

    Одна адаптация +1

    -Балам является больше, чем обычный преступник
    -чтобы быть попасть в тюрьму
    -Он живет в за решеткой в качестве прикрытия для своей реальной власти.

    в камеди надо посылать

    Видать у Дольфа, на пенсии, совсем дела плохи, ни одного нормального фильма за последние цать лет -(piratbit.org



      Дорогой пользователь! Огромная просьба, поблагодарите релизера, оцените раздачу и оставьте свои комментарий, если Вы скачали Бунт через торрент бесплатно!
      Комментировать посты могут только пользователи прошедшие не сложную регистрацию
      Показать сообщения:    

      Бунт через торрент
      Скачать бесплатно Бунт
      Бунт скачать торрент
      Бунт смотреть онлайн
      Cкачать фильм Бунт бесплатно
      Бунт скачать торрент в хорошем качестве
      Бунт смотреть онлайн бесплатно в хорошем качестве


      Вы не можете начинать темы
      Вы не можете отвечать на сообщения
      Вы не можете редактировать свои сообщения
      Вы не можете удалять свои сообщения
      Вы не можете голосовать в опросах
      Вы не можете прикреплять файлы к сообщениям
      Вы можете скачивать файлы