Лицензия

MVO

1

1 сезон

Лицензия

Лицензия

13

MVO

1 сезон

Deluxe Edition

pack

Рекомендуем

30

Repack

ВАЖНО

ВАЖНО

Ghostwire

RePack

jed

RePack

fifa19

RePack

RDR2

RePack

NEED FOR SPEED™ PAYBACK

RePack

Кинопоиск HD

 Острые козырьки 6 сезон

6 сезон

FAR CRY 6

RePack

Лицензия

MVO

1

1 сезон

1 сезон

Лицензия

  

Разлом (Юрий Музыкант, Павел Боголюбов) [1952, СССР, история, DVDRip от AVP Studio]

Разлом через торрент piratbit.org

Размер: 744 MB | Добавлен: 6 лет 8 мес. назад | Торрент скачан:14 раз
Смотреть онлайн Разлом | Скачать   

11-01-2016 09:31 Разлом Скачать торрент  

Разлом
Страна: СССР
Производство: Ленфильм

Жанр: история
Год выпуска: 1952
Продолжительность: 01:18:33

Перевод: Не требуется
Cубтитры: нет
Оригинальная аудиодорожка: русский

Режиссер:Юрий Музыкант, Павел Боголюбов

В ролях:
Виталий Полицеймако, Василий Софронов, Елена Грановская, Валентина Кибардина, Нина Ольхина, Николай Корн, Владислав Стржельчик, Сергей Карнович-Валуа, Александр Лариков, Георгий Семёнов, Борис Васильев (II), Виталий Иллич, Михаил Иванов, Евгений Иванов, Павел Колобов, А. Москвин, Дмитрий Прощалыгин, Ефим Копелян, Александр Чепурнов, Николай Семилетов, Иван Ефремов, Александр Соколов, Иван Пальму...
Полный список актёров

Описание:
Фильм-спектакль по одноименной пьесе Бориса Лавренева.
Постановка Ленинградского БДТ им. М.Горького. Режиссеры спектакля - Александр Соколов и Иван Зонне.
Кронштадт 1917 года. Матросы революционного крейсера "Заря" во главе с большевиком Артемом Годуном (Виталий Полицеймако) готовятся к всеобщему вооруженному восстанию. Команда корабля отказывается подчиняться Временному правительству и командир крейсера Берсенев переходит на сторону матросов. По-разному воспринимают это решение все члены его семьи...

Источник: DVD5 R5
Качество видео: DVDRip
Формат видео: AVI

Видео: 640x480 (4:3), 25 fps, XviD ~ 1188 kbps avg, 0.155 bit/pixel
Аудио: 48 kHz, MP3 2.0, 128 kbps

Раздача от:
Общее
Полное имя : Razlom.1952.DVDRip-745_[New-team]_by_AVP_Studio.avi
Формат : AVI
Формат/Информация : Audio Video Interleave
Размер файла : 744 Мбайт
Продолжительность : 1 ч. 18 м.
Общий поток : 1325 Кбит/сек
Программа кодирования : VirtualDubMod 1.5.10.3 | www.virtualdub-fr.org || (build 2550/release)
Библиотека кодирования : VirtualDubMod build 2550/release

Видео
Идентификатор : 0
Формат : MPEG-4 Visual
Профиль формата : Advanced Simple@L5
Параметр BVOP формата : 1
Параметр QPel формата : Нет
Параметр GMC формата : Без точки перехода
Параметр матрицы формата : Выборочная
Идентификатор кодека : XVID
Идентификатор кодека/Подсказка : XviD
Продолжительность : 1 ч. 18 м.
Битрейт : 1188 Кбит/сек
Ширина : 640 пикселей
Высота : 480 пикселей
Соотношение сторон : 4:3
Частота кадров : 25,000 кадров/сек
Цветовое пространство : YUV
Субдискретизация насыщенности : 4:2:0
Битовая глубина : 8 бит
Тип развёртки : Прогрессивная
Метод сжатия : С потерями
Бит/(Пиксели*Кадры) : 0.155
Размер потока : 667 Мбайт (90%)
Библиотека кодирования : XviD 1.2.1 (UTC 2008-12-04)

Аудио
Идентификатор : 1
Формат : MPEG Audio
Версия формата : Version 1
Профиль формата : Layer 3
Идентификатор кодека : 55
Идентификатор кодека/Подсказка : MP3
Продолжительность : 1 ч. 18 м.
Вид битрейта : Постоянный
Битрейт : 128 Кбит/сек
Каналы : 2 канала
Частота : 48,0 КГц
Метод сжатия : С потерями
Размер потока : 71,9 Мбайт (10%)
Выравнивание : Соединение по промежуткам
Продолжительность промежутка : 40 мс. (1,00 видеокадр)
Время предзагрузки промежутка : 504 мс.
Библиотека кодирования : LAME3.99r
Настройки программы : -m s -V 4 -q 2 -lowpass 17 -b 128



Скачать Разлом через торрент http://i057.radikal.ru/1601/d9/335df4e14831.png Скачать, смотреть онлайн Разлом бесплантно в хорошем качестве Описание:Фильм-спектакль по одноименной пьесе Бориса Лавренева.Постановка Ленинградского БДТ им. М.Горького. Режиссеры спектакля - ... 5 10 1
Info! Золотая раздача, скачанное не засчитывается.
Торрент: Зарегистрирован [2016-01-11 09:31] · скачан: 14 раз
Статус: √ проверено
Размер: 744 MB
Как cкачать? Как скачать Разлом через торрент | UTorrent

% Раздел Тема Автор DL S | L
Кино СССР [ 1.09 GB ] Разлом | | DVDRip-AVC от AVP Studio AVP Studio Скачать
1 | 0
Кино СССР [ 1.09 GB ] Разлом | | DVDRip от AVP Studio AVP Studio Скачать
1 | 0

28-11-2019 20:33  

Отключить вcю реклaмy на сайте

    Дорогой пользователь! Огромная просьба, поблагодарите релизера, оцените раздачу и оставьте свои комментарий, если Вы скачали Разлом через торрент бесплатно!!
    Комментировать посты могут только пользователи прошедшие не сложную регистрацию
    Показать сообщения:    


    Разлом через торрент
    Скачать бесплатно Разлом
    Разлом скачать торрент
    Разлом смотреть онлайн
    Cкачать фильм Разлом бесплатно
    Разлом скачать торрент в хорошем качестве
    Разлом смотреть онлайн бесплатно в хорошем качестве
    Вы не можете начинать темы
    Вы не можете отвечать на сообщения
    Вы не можете редактировать свои сообщения
    Вы не можете удалять свои сообщения
    Вы не можете голосовать в опросах
    Вы не можете прикреплять файлы к сообщениям
    Вы можете скачивать файлы