Присоединяйтесь к нам в Telegram!, здесь всегда актуальный адрес сайта, оперативная поддержка и многое другое!!

>

5.9

iTunes

7.4

iTunes

9.4

1 сезон

1

7.4

2 сезон

7.2

iTunes

7.3

1 сезон

13

6.1

iTunes

8.3

GOG

30

ULTIMATE

pack

9.9

Лицензия

ВАЖНО

ИГРА 18+

pack

7.3

RePack

MK11

7.7

RePack

jed

7.8

RePack

fifa19

8.5

RePack

RDR2

RePack

NEED FOR SPEED™ PAYBACK

5 сезон

9 сезон

Бесстыжие 9 сезон

Все сериалы

все сериалы на PB.wtf

RePack

FAR CRY 5

Anonymous, добрый день, мы катастрофически не успеваем собрать деньги на оплату серверов, помогите нам пожалуйста 5,10,15р., для нас важна любая помощь . В качестве благодарности мы отключим Вам всю рекламу на сайте (укажите свой ник в строку Ваше имя)!

×
  
Magnet ссылка

Прогулка по лесам / A Walk in the Woods (Кен Куопис) [2015, драма, комедия, приключения, HDRip, Любительский двухголосый [Parovoz Production] piratbit.org

Прогулка по лесам через торрент piratbit.org

Размер: 1.37 GB | Добавлен: 5 лет 10 мес. назад | Торрент скачан:203 раза
Смотреть онлайн Прогулка по лесам | Скачать    Ребята, помогите собрать деньги на оплату серверов!!!

11-01-2016 17:59 Прогулка по лесам Скачать торрент  


Прогулка по лесам / A Walk in the Woods
««When you push yourself to the edge, the real fun begins»»

ИНФОРМАЦИЯ:
Год выпуска:2015
Страна: США
Жанр: драма, комедия, приключения, биография
Продолжительность: 01:44:47
Перевод: Любительский двухголосый [Parovoz Production]
Режиссер: Кен Куопис

В Ролях:


Роберт Редфорд (Bill Bryson), Ник Нолти (Stephen Katz), Эмма Томпсон (Catherine Bryson), Мэри Стинберген (Jeannie), Ник Офферман (REI Dave), Кристен Шаал (Mary Ellen), Р. Кит Харрис (Sam Bryson), Рэндолл Ньюсом (TV Host), Хейли Ловитт (Donna), Линдс Эдвардс (Darren), Сьюзэн МакПайл (Beulah), Эндрю Фогель (Young Hiker #1)

Описание:
Проведя два десятилетия в Англии, писатель Билл Брайсон решает, что лучший способ вновь прочувствовать свою родину - это путешествие по следу аппалачей в компании своего старого друга, бывшего алкоголика.

  • Мировая премьера:23 января 2015

    ТЕХ.ДАННЫЕ:
    Качество: HDRip
    Формат: AVI
    Видео: XviD, 720x304 (2.35:1), 1592 kbps, 23,976 fps, 0,303 bpp
    Аудио: AC3 / 2.0 / 48 kHz / 192 kbps / 16 bit


    General
    Complete name : D:\Торенты\5r0gUlk0.Po.1eSam.2015.L2.HDRip.1400MB.avi
    Format : AVI
    Format/Info : Audio Video Interleave
    File size : 1.37 GiB
    Duration : 1h 44mn
    Overall bit rate : 1 867 Kbps
    Writing application : VirtualDubMod 1.5.10.3 | www.virtualdub-fr.org || (build 2550/release)
    Writing library : VirtualDubMod build 2550/release

    Video
    ID : 0
    Format : MPEG-4 Visual
    Format profile : Advanced Simple@L5
    Format settings, BVOP : 2
    Format settings, QPel : No
    Format settings, GMC : No warppoints
    Format settings, Matrix : Default (MPEG)
    Codec ID : XVID
    Codec ID/Hint : XviD
    Duration : 1h 44mn
    Bit rate : 1 593 Kbps
    Width : 720 pixels
    Height : 304 pixels
    Display aspect ratio : 2.35:1
    Frame rate : 23.976 fps
    Color space : YUV
    Chroma subsampling : 4:2:0
    Bit depth : 8 bits
    Scan type : Progressive
    Compression mode : Lossy
    Bits/(Pixel*Frame) : 0.303
    Stream size : 1.17 GiB (85%)
    Writing library : XviD 1.2.1 (UTC 2008-12-04)

    Audio
    ID : 1
    Format : AC-3
    Format/Info : Audio Coding 3
    Mode extension : CM (complete main)
    Codec ID : 2000
    Duration : 1h 44mn
    Bit rate mode : Constant
    Bit rate : 192 Kbps
    Channel(s) : 2 channels
    Channel positions : Front: L R
    Sampling rate : 48.0 KHz
    Bit depth : 16 bits
    Compression mode : Lossy
    Stream size : 144 MiB (10%)
    Alignment : Split accross interleaves
    Скриншоты:

    © Оформление by .::Ворон::.
    piratbit.org



  • Скачать Прогулка по лесам через торрент https://pic1.kartinco.top/images/61/ordi9.jpg Скачать, смотреть онлайн Прогулка по лесам бесплантно в хорошем качестве Описание: Проведя два десятилетия в Англии, писатель Билл Брайсон решает, что лучший способ вновь прочувствовать свою родину - это ... 7 10 3
    Торрент: Зарегистрирован [2016-01-11 17:59] · скачан: 203 раз
    Статус: T временная
    Размер: 1.37 GB
    Как cкачать? Как скачать Прогулка по лесам через торрент | UTorrent

    28-11-2019 20:33  

    Отключить всю рекламу на сайте

    11-01-2016 18:00 Прогулка по лесам Скачать торрент  

    Внимание, в релизе присутствует реклама казино. Что делать? ждать когда выложат релиз без этого (в них всегда указанно что релиз без рекламы) либо лицензию. Запретить такие темы нельзя, пока нет альтернативы.piratbit.org


      Дорогой пользователь! Огромная просьба, поблагодарите релизера, оцените раздачу и оставьте свои комментарий, если Вы скачали Прогулка по лесам через торрент бесплатно!
      Комментировать посты могут только пользователи прошедшие не сложную регистрацию
      Показать сообщения:    

      Прогулка по лесам через торрент
      Скачать бесплатно Прогулка по лесам
      Прогулка по лесам скачать торрент
      Прогулка по лесам смотреть онлайн
      Cкачать фильм Прогулка по лесам бесплатно
      Прогулка по лесам скачать торрент в хорошем качестве
      Прогулка по лесам смотреть онлайн бесплатно в хорошем качестве


      Вы не можете начинать темы
      Вы не можете отвечать на сообщения
      Вы не можете редактировать свои сообщения
      Вы не можете удалять свои сообщения
      Вы не можете голосовать в опросах
      Вы не можете прикреплять файлы к сообщениям
      Вы можете скачивать файлы