Marvel's Avengers Deluxe Edition (супер цена) 159р. Внимание количество ограничено!!!

2 сезон

iTunes

iTunes

1

iTunes

iTunes

iTunes

WEBRip

iTunes

30
pack

Новость дня

ВАЖНО

!!Акция!!

Alien_RageХит недели

RePack

Horizon Zero Dawn

ИГРА 18+

pack

RePack

jed

!!Акция!!

Alien_Rage

RePack

fifa19

RePack

Assassins Creed: Odyssey

RePack

NEED FOR SPEED™ PAYBACK

4 сезон

9 сезон

Бесстыжие 9 сезон

Все сериалы

все сериалы на PB.wtf

RePack

FAR CRY 5
  

Богатырша [2015, мультфильм, WEB-DLRip-AVC, Оригинальный [iTunes] R.G.Resident piratbit.org

Богатырша через торрент piratbit.org

Размер: 1.46 GB | Добавлен: 4 года 8 мес. назад | Торрент скачан:924 раза
Скачать  

14-01-2016 06:38 Богатырша Скачать торрент  

Богатырша
««Самый сказочный блокбастер Нового года»»

Год выпуска: 2015
Страна: Россия
Жанр: мультфильм
Продолжительность: 01:15:47
Перевод: Оригинальный [iTunes]
Режиссер: Ольга Лопато
В ролях:

Анна Хилькевич (Роса, озвучка), Алексей Чумаков (средняя голова дракона, озвучка), Гарик Харламов (правая голова, озвучка), Тимур Батрутдинов (левая голова, озвучка), Михаил Пореченков (Бориполк, озвучка), Алёна Бабенко (Рогнеда, озвучка), Борис Щербаков (князь, озвучка), Мирослава Карпович (княжна, озвучка), Армен Джигарханян (дед Пихто, озвучка), Василиса Эльдарова (Роса в детстве, озвучка)
Описание:
...И было предсказание славному витязю Бориполку, что у него родится сын, который станет великим воином и спасет Русь от великой напасти. Но, как всегда, все вышло наоборот: у героя родилась... дочка. А спасения Руси никто не отменял. И как сражаться с врагом, когда у него три головы, и каждая со своими выкрутасами?

Качество: WEB-DLRip-AVC Rip by schultz R.G.Resident
Формат: MKV
Видео: AVC, 1024x428 (2.40:1), 2373 kbps, 25 fps, 0,217 bpp
Аудио: AC3 / 5.1 / 48 kHz / 384 kbps / 16 bit

Код:

General
Unique ID                                : 175115941970472797337426484645346649841 (0x83BE1A8805F822FB9C49956F16CFA6F1)
Complete name                            : D:\download\BoGatiRiXa.2015.WEB-DLRip-AVC by schultz R.G.Resident.mkv
Format                                   : Matroska
Format version                           : Version 2
File size                                : 1.46 GiB
Duration                                 : 1h 15mn
Overall bit rate                         : 2 756 Kbps
Encoded date                             : UTC 2016-01-13 17:24:13
Writing application                      : mkvmerge v6.1.0 ('Old Devil') built on Mar  4 2013 09:10:42
Writing library                          : libebml v1.3.0 + libmatroska v1.4.0

Video
ID                                       : 1
Format                                   : AVC
Format/Info                              : Advanced Video Codec
Format profile                           : High@L4.1
Format settings, CABAC                   : Yes
Format settings, ReFrames                : 12 frames
Codec ID                                 : V_MPEG4/ISO/AVC
Duration                                 : 1h 15mn
Bit rate                                 : 2 373 Kbps
Width                                    : 1 024 pixels
Height                                   : 428 pixels
Display aspect ratio                     : 2.40:1
Frame rate                               : 25.000 fps
Color space                              : YUV
Chroma subsampling                       : 4:2:0
Bit depth                                : 8 bits
Scan type                                : Progressive
Bits/(Pixel*Frame)                       : 0.217
Stream size                              : 1.23 GiB (84%)
Writing library                          : x264 core 130 r2273 b3065e6
Encoding settings                        : cabac=1 / ref=12 / deblock=1:-3:-3 / analyse=0x3:0x113 / me=umh / subme=11 / psy=1 / psy_rd=1.00:0.10 / mixed_ref=1 / me_range=48 / chroma_me=1 / trellis=2 / 8x8dct=1 / cqm=0 / deadzone=21,11 / fast_pskip=0 / chroma_qp_offset=-3 / threads=12 / lookahead_threads=3 / sliced_threads=0 / nr=0 / decimate=1 / interlaced=0 / bluray_compat=0 / constrained_intra=0 / bframes=13 / b_pyramid=2 / b_adapt=2 / b_bias=0 / direct=3 / weightb=1 / open_gop=0 / weightp=2 / keyint=250 / keyint_min=25 / scenecut=40 / intra_refresh=0 / rc_lookahead=40 / rc=2pass / mbtree=0 / bitrate=2373 / ratetol=1.0 / qcomp=0.60 / qpmin=0 / qpmax=69 / qpstep=4 / cplxblur=20.0 / qblur=0.5 / vbv_maxrate=14000 / vbv_bufsize=14000 / nal_hrd=none / ip_ratio=1.40 / pb_ratio=1.30 / aq=1:0.80
Default                                  : Yes
Forced                                   : No

Audio
ID                                       : 2
Format                                   : AC-3
Format/Info                              : Audio Coding 3
Mode extension                           : CM (complete main)
Codec ID                                 : A_AC3
Duration                                 : 1h 15mn
Bit rate mode                            : Constant
Bit rate                                 : 384 Kbps
Channel(s)                               : 6 channels
Channel positions                        : Front: L C R, Side: L R, LFE
Sampling rate                            : 48.0 KHz
Bit depth                                : 16 bits
Compression mode                         : Lossy
Stream size                              : 208 MiB (14%)
Default                                  : Yes
Forced                                   : No


piratbit.org



Скачать Богатырша через торрент http://pic1.kartinco.top/images/10/ejpqs.jpg Скачать фильм Богатырша [2015, мультфильм, WEB-DLRip-AVC, Оригинальный [iTunes] R.G.Residentчерез торрент бесплантно в хорошем качестве Описание: ...И было предсказание славному витязю Бориполку, что у него родится сын, который станет великим воином и спасет Русь от великой ... 8 10 27
Info! Золотая раздача, скачанное не засчитывается.
Торрент: Зарегистрирован [2016-01-14 06:43] · скачан: 924 раз
Статус: √ проверено
Размер: 1.46 GB
Как cкачать? Как скачать Богатырша через торрент | qTorrent

28-11-2019 20:33  

Отключить всю рекламу на сайте

    Дорогой пользователь! Огромная просьба, поблагодарите релизера, оцените раздачу и оставьте свои комментарий, если Вы скачали Богатырша через торрент бесплатно! Внесите свою лепту в развитие PiratBit!
    Комментировать посты могут только пользователи прошедшие не сложную регистрацию
    Показать сообщения:    

    Богатырша через торрент
    Скачать бесплатно Богатырша
    Богатырша скачать торрент
    Богатырша смотреть онлайн
    Cкачать фильм Богатырша бесплатно
    Богатырша скачать торрент в хорошем качестве
    Богатырша смотреть онлайн бесплатно в хорошем качестве


    Вы не можете начинать темы
    Вы не можете отвечать на сообщения
    Вы не можете редактировать свои сообщения
    Вы не можете удалять свои сообщения
    Вы не можете голосовать в опросах
    Вы не можете прикреплять файлы к сообщениям
    Вы можете скачивать файлы