Присоединяйтесь к нам в Telegram!, здесь всегда актуальный адрес сайта, оперативная поддержка и многое другое!!

>

5.9

iTunes

7.4

iTunes

9.4

1 сезон

1

7.4

2 сезон

7.2

iTunes

7.3

1 сезон

13

6.1

iTunes

8.3

GOG

30

ULTIMATE

pack

9.9

Лицензия

ВАЖНО

ИГРА 18+

pack

7.3

RePack

MK11

7.7

RePack

jed

7.8

RePack

fifa19

8.5

RePack

RDR2

RePack

NEED FOR SPEED™ PAYBACK

5 сезон

9 сезон

Бесстыжие 9 сезон

Все сериалы

все сериалы на PB.wtf

RePack

FAR CRY 5

Anonymous, добрый день, мы катастрофически не успеваем собрать деньги на оплату серверов, помогите нам пожалуйста 5,10,15р., для нас важна любая помощь . В качестве благодарности мы отключим Вам всю рекламу на сайте (укажите свой ник в строку Ваше имя)!

×
  
Magnet ссылка

Почему я? / Why Me? (Тудор Жюржию) [2015, триллер, драма, HDTVRip, Любительский двухголосый [Parovoz Production] piratbit.org

Почему я? через торрент piratbit.org

Размер: 1.37 GB | Добавлен: 5 лет 10 мес. назад | Торрент скачан:24 раза
Смотреть онлайн Почему я? | Скачать    Ребята, помогите собрать деньги на оплату серверов!!!

14-01-2016 17:18 Почему я? Скачать торрент  


Почему я? / Why Me?
««One man against them all»»

ИНФОРМАЦИЯ:
Год выпуска:2015
Страна: Румыния, Болгария, Венгрия
Жанр: триллер, драма
Продолжительность: 02:06:30
Перевод: Любительский двухголосый [Parovoz Production]
Режиссер: Тудор Жюржию

В Ролях:


Емилиан Опреа (Cristian Panduru), Михай Константин (Procuror Codrea), Андриа Василь (Dora), Дан Кондураке (Procuror Iustin Petrut), Liviu Pintileasa (Ionut), Mihai Smarandache (Serban), Элин Флоря (Bogdan Leca), Lucretia Mandric (Matusa), Sore Mihalache (Alina), Ионут Карас (Rares), Вирджил Огасану (Procurorul General al Romaniei, Iovitu), Banyai Kelemen Barna (Lajos Molnar)

Описание:
Кристиан, молодой преуспевающий прокурор, ещё не растерявший свои идеалы, ведёт дело против хитрого, изворотливого коррупционера со связями на самом верху.. Ему предстоит сделать нелёгкий выбор между карьерой и правдой. Всё глубже и глубже погружаясь в это дело, герой вступает на опасный путь, полный неожиданных и болезненных откровений и разоблачений...

  • Мировая премьера:11 февраля 2015

    ТЕХ.ДАННЫЕ:
    Качество: HDTVRip
    Формат: AVI
    Видео: XviD, 720x304 (2.35:1), 1349 kbps, 25 fps, 0,247 bpp
    Аудио: AC3 / 2.0 / 48 kHz / 128 kbps / 16 bit


    General
    Complete name : D:\Торенты\P04eMu.Ya.2015.L2.HDTVRip.1400MB.avi
    Format : AVI
    Format/Info : Audio Video Interleave
    File size : 1.37 GiB
    Duration : 2h 6mn
    Overall bit rate : 1 548 Kbps
    Writing application : VirtualDubMod 1.5.10.3 | www.virtualdub-fr.org || (build 2550/release)
    Writing library : VirtualDubMod build 2550/release

    Video
    ID : 0
    Format : MPEG-4 Visual
    Format profile : Advanced Simple@L5
    Format settings, BVOP : 2
    Format settings, QPel : No
    Format settings, GMC : No warppoints
    Format settings, Matrix : Default (MPEG)
    Codec ID : XVID
    Codec ID/Hint : XviD
    Duration : 2h 6mn
    Bit rate : 1 350 Kbps
    Width : 720 pixels
    Height : 304 pixels
    Display aspect ratio : 2.35:1
    Frame rate : 25.000 fps
    Color space : YUV
    Chroma subsampling : 4:2:0
    Bit depth : 8 bits
    Scan type : Progressive
    Compression mode : Lossy
    Bits/(Pixel*Frame) : 0.247
    Stream size : 1.19 GiB (87%)
    Writing library : XviD 1.2.1 (UTC 2008-12-04)

    Audio
    ID : 1
    Format : AC-3
    Format/Info : Audio Coding 3
    Mode extension : CM (complete main)
    Codec ID : 2000
    Duration : 2h 6mn
    Bit rate mode : Constant
    Bit rate : 128 Kbps
    Channel(s) : 2 channels
    Channel positions : Front: L R
    Sampling rate : 48.0 KHz
    Bit depth : 16 bits
    Compression mode : Lossy
    Stream size : 116 MiB (8%)
    Alignment : Split accross interleaves
    Скриншоты:

    © Оформление by .::Ворон::.
    piratbit.org
    !Ворон писал(а):

    Внимание, в релизе присутствует реклама казино. Что делать? ждать когда выложат релиз без этого (в них всегда указанно что релиз без рекламы) либо лицензию. Запретить такие темы нельзя, пока нет альтернативы.
    Реклама в новых релизах Кино?



  • Скачать Почему я? через торрент https://pic1.kartinco.top/images/61/ordi9.jpg Скачать, смотреть онлайн Почему я? бесплантно в хорошем качестве Описание: Кристиан, молодой преуспевающий прокурор, ещё не растерявший свои идеалы, ведёт дело против хитрого, изворотливого коррупционера ... 5 10 1
    Торрент: Зарегистрирован [2016-01-14 17:18] · скачан: 24 раз
    Статус: T временная
    Размер: 1.37 GB
    Как cкачать? Как скачать Почему я? через торрент | UTorrent

    28-11-2019 20:33  

    Отключить всю рекламу на сайте

      Дорогой пользователь! Огромная просьба, поблагодарите релизера, оцените раздачу и оставьте свои комментарий, если Вы скачали Почему я? через торрент бесплатно!
      Комментировать посты могут только пользователи прошедшие не сложную регистрацию
      Показать сообщения:    

      Почему я? через торрент
      Скачать бесплатно Почему я?
      Почему я? скачать торрент
      Почему я? смотреть онлайн
      Cкачать фильм Почему я? бесплатно
      Почему я? скачать торрент в хорошем качестве
      Почему я? смотреть онлайн бесплатно в хорошем качестве


      Вы не можете начинать темы
      Вы не можете отвечать на сообщения
      Вы не можете редактировать свои сообщения
      Вы не можете удалять свои сообщения
      Вы не можете голосовать в опросах
      Вы не можете прикреплять файлы к сообщениям
      Вы можете скачивать файлы