Присоединяйтесь к нам в Telegram!, здесь всегда актуальный адрес сайта, оперативная поддержка и многое другое!!

>

5.9

iTunes

7.4

iTunes

9.4

1 сезон

1

7.4

2 сезон

7.2

iTunes

7.3

1 сезон

13

6.1

iTunes

8.3

GOG

30

ULTIMATE

pack

9.9

Лицензия

ВАЖНО

ИГРА 18+

pack

7.3

RePack

MK11

7.7

RePack

jed

7.8

RePack

fifa19

8.5

RePack

RDR2

RePack

NEED FOR SPEED™ PAYBACK

5 сезон

9 сезон

Бесстыжие 9 сезон

Все сериалы

все сериалы на PB.wtf

RePack

FAR CRY 5

Anonymous, добрый день, мы катастрофически не успеваем собрать деньги на оплату серверов, помогите нам пожалуйста 5,10,15р., для нас важна любая помощь . В качестве благодарности мы отключим Вам всю рекламу на сайте (укажите свой ник в строку Ваше имя)!

×
  
Magnet ссылка

Безумные преподы: Миссия в Лондон / Les profs 2 (Пьер-Франсуа Мартен-Лаваль) [2015, комедия, HDRip, Любительский двухголосый [Parovoz Production] piratbit.org

Безумные преподы: Миссия в Лондон через торрент piratbit.org

Размер: 1.37 GB | Добавлен: 5 лет 10 мес. назад | Торрент скачан:204 раза
Смотреть онлайн Безумные преподы: Миссия в Лондон | Скачать    Ребята, помогите собрать деньги на оплату серверов!!!

14-01-2016 17:23 Безумные преподы: Миссия в Лондон Скачать торрент  


Безумные преподы: Миссия в Лондон / Les profs 2


ИНФОРМАЦИЯ:
Год выпуска:2015
Страна: Франция
Жанр: комедия
Продолжительность: 01:32:45
Перевод: Любительский двухголосый [Parovoz Production]
Режиссер: Пьер-Франсуа Мартен-Лаваль

В Ролях:


Кев Адамс (Boulard), Изабель Нанти (Gladys, la prof d'anglais), Дидье Бурдон (Cutiro / Tirocu), Пьер-Франсуа Мартен-Лаваль (Antoine Polochon), Арно Дюкре (Eric, le prof de sport), Стефи Сельма (Amina, la prof de français), Раймон Бошар (Maurice, le prof de philo), Фред Туш (Albert, le prof de chimie), Гайя Уайсс (Vivienne), Том Хадсон (Rowan), Эрик Лёмпарт (Edward, the Housemaster), Лора Бенсон (Miss Johns)

Описание:
Худшие учителя Франции отправляются в Англию для выполнения сверхсекретной миссии. Вместе с «Королем Болванов» Боулардом они должны будут парашютироваться в лучшую школу страны и применить свои знаменитые методики обучения к будущему.

  • Мировая премьера:1 июля 2015

    ТЕХ.ДАННЫЕ:
    Качество: HDRip
    Формат: AVI
    Видео: XviD, 720x304 (2.35:1), 1826 kbps, 24 fps, 0,348 bpp
    Аудио: AC3 / 2.0 / 48 kHz / 192 kbps / 16 bit


    General
    Complete name : D:\Торенты\Be3uMn1ye.5rePod1.2015.L2.HDRip.1400MB.avi
    Format : AVI
    Format/Info : Audio Video Interleave
    File size : 1.37 GiB
    Duration : 1h 32mn
    Overall bit rate : 2 111 Kbps
    Writing application : VirtualDubMod 1.5.10.3 | www.virtualdub-fr.org || (build 2550/release)
    Writing library : VirtualDubMod build 2550/release

    Video
    ID : 0
    Format : MPEG-4 Visual
    Format profile : Advanced Simple@L5
    Format settings, BVOP : 2
    Format settings, QPel : No
    Format settings, GMC : No warppoints
    Format settings, Matrix : Default (MPEG)
    Codec ID : XVID
    Codec ID/Hint : XviD
    Duration : 1h 32mn
    Bit rate : 1 826 Kbps
    Width : 720 pixels
    Height : 304 pixels
    Display aspect ratio : 2.35:1
    Frame rate : 24.000 fps
    Color space : YUV
    Chroma subsampling : 4:2:0
    Bit depth : 8 bits
    Scan type : Progressive
    Compression mode : Lossy
    Bits/(Pixel*Frame) : 0.348
    Stream size : 1.18 GiB (87%)
    Writing library : XviD 1.2.1 (UTC 2008-12-04)

    Audio
    ID : 1
    Format : AC-3
    Format/Info : Audio Coding 3
    Mode extension : CM (complete main)
    Codec ID : 2000
    Duration : 1h 32mn
    Bit rate mode : Constant
    Bit rate : 192 Kbps
    Channel(s) : 2 channels
    Channel positions : Front: L R
    Sampling rate : 48.0 KHz
    Bit depth : 16 bits
    Compression mode : Lossy
    Stream size : 127 MiB (9%)
    Alignment : Split accross interleaves
    Скриншоты:

    © Оформление by .::Ворон::.
    piratbit.org
    !Ворон писал(а):

    Внимание, в релизе присутствует реклама казино. Что делать? ждать когда выложат релиз без этого (в них всегда указанно что релиз без рекламы) либо лицензию. Запретить такие темы нельзя, пока нет альтернативы.
    Реклама в новых релизах Кино?



  • Скачать Безумные преподы: Миссия в Лондон через торрент https://pic1.kartinco.top/images/61/ordi9.jpg Скачать, смотреть онлайн Безумные преподы: Миссия в Лондон бесплантно в хорошем качестве Описание: Худшие учителя Франции отправляются в Англию для выполнения сверхсекретной миссии. Вместе с «Королем Болванов» Боулардом они ... 9.6 10 5
    Торрент: Зарегистрирован [2016-01-14 17:23] · скачан: 204 раз
    Статус: T временная
    Размер: 1.37 GB
    Как cкачать? Как скачать Безумные преподы: Миссия в Лондон через торрент | UTorrent

    % Раздел Тема Автор DL S | L
    T Релизы по Парсеру [Игры, Сериалы и Фильмы и другое...] [ 6.68 GB ] Безумные преподы: Миссия в Лондон / Les profs 2 [2015 BDRip 1080p Любительский двухголосый [Parovoz Production] Ворон Скачать
    1 | 0

    28-11-2019 20:33  

    Отключить всю рекламу на сайте

    16-01-2016 14:49 Безумные преподы: Миссия в Лондон Скачать торрент  

    Как фильм , скачавшие ?piratbit.org



      Дорогой пользователь! Огромная просьба, поблагодарите релизера, оцените раздачу и оставьте свои комментарий, если Вы скачали Безумные преподы: Миссия в Лондон через торрент бесплатно!
      Комментировать посты могут только пользователи прошедшие не сложную регистрацию
      Показать сообщения:    

      Безумные преподы: Миссия в Лондон через торрент
      Скачать бесплатно Безумные преподы: Миссия в Лондон
      Безумные преподы: Миссия в Лондон скачать торрент
      Безумные преподы: Миссия в Лондон смотреть онлайн
      Cкачать фильм Безумные преподы: Миссия в Лондон бесплатно
      Безумные преподы: Миссия в Лондон скачать торрент в хорошем качестве
      Безумные преподы: Миссия в Лондон смотреть онлайн бесплатно в хорошем качестве


      Вы не можете начинать темы
      Вы не можете отвечать на сообщения
      Вы не можете редактировать свои сообщения
      Вы не можете удалять свои сообщения
      Вы не можете голосовать в опросах
      Вы не можете прикреплять файлы к сообщениям
      Вы можете скачивать файлы