Присоединяйтесь к нам в Telegram!, здесь всегда актуальный адрес сайта, оперативная поддержка и многое другое!!

>

5.9

iTunes

7.4

iTunes

9.4

1 сезон

1

7.4

2 сезон

7.2

iTunes

7.3

iTunes

13

6.1

iTunes

8.3

Пиратка

30

ULTIMATE

pack

9.9

Лицензия

ВАЖНО

ИГРА 18+

pack

7.3

RePack

MK11

7.7

RePack

jed

7.8

RePack

fifa19

8.5

RePack

RDR2

RePack

NEED FOR SPEED™ PAYBACK

5 сезон

9 сезон

Бесстыжие 9 сезон

Все сериалы

все сериалы на PB.wtf

RePack

FAR CRY 5

Anonymous, доброй ночи, мы катастрофически не успеваем собрать деньги на оплату серверов, помогите нам пожалуйста 5,10,15р., для нас важна любая помощь . В качестве благодарности мы отключим Вам всю рекламу на сайте (укажите свой ник в строку Ваше имя)!

×
  
Magnet ссылка

Карантин / Containment (Neil Mcenery-West, Neil McEnery-West) [2015, ужасы, фантастика, триллер, WEB-DLRip, Любительский двухголосый [Parovoz Production] piratbit.org

Карантин через торрент piratbit.org

Размер: 1.32 GB | Добавлен: 5 лет 10 мес. назад | Торрент скачан:208 раз
Смотреть онлайн Карантин | Скачать    Ребята, помогите собрать деньги на оплату серверов!!!

14-01-2016 17:28 Карантин Скачать торрент  


Карантин / Containment


ИНФОРМАЦИЯ:
Год выпуска:2015
Страна: Великобритания
Жанр: ужасы, фантастика, триллер
Продолжительность: 01:16:55
Перевод: Любительский двухголосый [Parovoz Production]
Режиссер: Neil Mcenery-West, Neil McEnery-West

В Ролях:


Лу Брили (Sally), Шила Рид (Enid), Ли Росс (Mark), Пиппа Никсон (Hazel), William Postlethwaite (Aiden), Эндрю Люн (Sergei), Клер Гризли (Angry Resident in Corridor), Джилл Бьюкэнэн (Angry Resident in Corridor), Ханна Чалмерс (Sinead), Пенни Джудд (Angry Resident in Corridor), Уолтер Хендрикс III (Inside Cordon Pedestrian), Гэбриел Сеньор (Nicu)

Описание:
Однажды, не объясняя ничего, целый многоквартирный район города с жильцами внутри закрыли на карантин. Ни воды, ни электричества — запертые в своих домах люди начали нервничать. Объединив усилии, они решили использовать противозаконные методы, чтобы сбежать.

  • Мировая премьера:1 августа 2015

    ТЕХ.ДАННЫЕ:
    Качество: WEB-DLRip
    Формат: AVI
    Видео: XviD, 720x320 (2.25:1), 1777 kbps, 23,976 fps, 0,322 bpp
    Аудио №1: AC3 / 2.0 / 48 kHz / 192 kbps / Russian
    Аудио №2: AC3 / 5.1 / 48 kHz / 384 kbps / English


    General
    Complete name : D:\Торенты\KaRaNt1n.2015.L2.WEB-DLRip.1400MB.avi
    Format : AVI
    Format/Info : Audio Video Interleave
    File size : 1.32 GiB
    Duration : 1h 16mn
    Overall bit rate : 2 462 Kbps
    Writing application : VirtualDubMod 1.5.10.3 | www.virtualdub-fr.org || (build 2550/release)
    Writing library : VirtualDubMod build 2550/release

    Video
    ID : 0
    Format : MPEG-4 Visual
    Format profile : Advanced Simple@L5
    Format settings, BVOP : 2
    Format settings, QPel : No
    Format settings, GMC : No warppoints
    Format settings, Matrix : Default (MPEG)
    Codec ID : XVID
    Codec ID/Hint : XviD
    Duration : 1h 16mn
    Bit rate : 1 777 Kbps
    Width : 720 pixels
    Height : 320 pixels
    Display aspect ratio : 2.25:1
    Frame rate : 23.976 fps
    Color space : YUV
    Chroma subsampling : 4:2:0
    Bit depth : 8 bits
    Scan type : Progressive
    Compression mode : Lossy
    Bits/(Pixel*Frame) : 0.322
    Stream size : 978 MiB (72%)
    Writing library : XviD 1.2.1 (UTC 2008-12-04)

    Audio #1
    ID : 1
    Format : AC-3
    Format/Info : Audio Coding 3
    Mode extension : CM (complete main)
    Codec ID : 2000
    Duration : 1h 16mn
    Bit rate mode : Constant
    Bit rate : 192 Kbps
    Channel(s) : 2 channels
    Channel positions : Front: L R
    Sampling rate : 48.0 KHz
    Bit depth : 16 bits
    Compression mode : Lossy
    Stream size : 106 MiB (8%)
    Alignment : Split accross interleaves

    Audio #2
    ID : 2
    Format : AC-3
    Format/Info : Audio Coding 3
    Mode extension : CM (complete main)
    Codec ID : 2000
    Duration : 1h 16mn
    Bit rate mode : Constant
    Bit rate : 384 Kbps
    Channel(s) : 6 channels
    Channel positions : Front: L C R, Side: L R, LFE
    Sampling rate : 48.0 KHz
    Bit depth : 16 bits
    Compression mode : Lossy
    Stream size : 211 MiB (16%)
    Alignment : Split accross interleaves
    Скриншоты:

    © Оформление by .::Ворон::.
    piratbit.org
    !Ворон писал(а):

    Внимание, в релизе присутствует реклама казино. Что делать? ждать когда выложат релиз без этого (в них всегда указанно что релиз без рекламы) либо лицензию. Запретить такие темы нельзя, пока нет альтернативы.
    Реклама в новых релизах Кино?



  • Скачать Карантин через торрент https://pic1.kartinco.top/images/61/ordi9.jpg Скачать, смотреть онлайн Карантин бесплантно в хорошем качестве Описание: Однажды, не объясняя ничего, целый многоквартирный район города с жильцами внутри закрыли на карантин. Ни воды, ни электричества ... 8.2 10 5
    Торрент: Зарегистрирован [2016-01-14 17:28] · скачан: 208 раз
    Статус: T временная
    Размер: 1.32 GB
    Как cкачать? Как скачать Карантин через торрент | UTorrent

    % Раздел Тема Автор DL S | L
    Зарубежные сериалы [ 10.9 GB ] Карантин / Containment / Сезон: 1 / Серии 1-13 из 13 [2016 WEB-DLRip-AVC] MVO [BaibaKo] GEKADOL Скачать
    1 | 1

    28-11-2019 20:33  

    Отключить всю рекламу на сайте

    14-01-2016 22:05 Карантин Скачать торрент  

    ещё одна версия репортажа ?piratbit.org



    15-01-2016 16:35 Карантин Скачать торрент  

    похожеpiratbit.org



      Дорогой пользователь! Огромная просьба, поблагодарите релизера, оцените раздачу и оставьте свои комментарий, если Вы скачали Карантин через торрент бесплатно!
      Комментировать посты могут только пользователи прошедшие не сложную регистрацию
      Показать сообщения:    

      Карантин через торрент
      Скачать бесплатно Карантин
      Карантин скачать торрент
      Карантин смотреть онлайн
      Cкачать фильм Карантин бесплатно
      Карантин скачать торрент в хорошем качестве
      Карантин смотреть онлайн бесплатно в хорошем качестве


      Вы не можете начинать темы
      Вы не можете отвечать на сообщения
      Вы не можете редактировать свои сообщения
      Вы не можете удалять свои сообщения
      Вы не можете голосовать в опросах
      Вы не можете прикреплять файлы к сообщениям
      Вы можете скачивать файлы