Присоединяйтесь к нам в Telegram!, здесь всегда актуальный адрес сайта, оперативная поддержка и многое другое!!

>

5.9

iTunes

7.4

iTunes

9.4

1 сезон

1

7.4

2 сезон

7.2

iTunes

7.3

1 сезон

13

6.1

iTunes

8.3

GOG

30

ULTIMATE

pack

9.9

Лицензия

ВАЖНО

ИГРА 18+

pack

7.3

RePack

MK11

7.7

RePack

jed

7.8

RePack

fifa19

8.5

RePack

RDR2

RePack

NEED FOR SPEED™ PAYBACK

5 сезон

9 сезон

Бесстыжие 9 сезон

Все сериалы

все сериалы на PB.wtf

RePack

FAR CRY 5

Anonymous, доброй ночи, мы катастрофически не успеваем собрать деньги на оплату серверов, помогите нам пожалуйста 5,10,15р., для нас важна любая помощь . В качестве благодарности мы отключим Вам всю рекламу на сайте (укажите свой ник в строку Ваше имя)!

×
  
Magnet ссылка

Все будет хорошо / Every Thing Will Be Fine (Вим Вендерс) [2015, драма, HDRip, Любительский двухголосый [Parovoz Production] piratbit.org

Все будет хорошо через торрент piratbit.org

Размер: 1.37 GB | Добавлен: 5 лет 10 мес. назад | Торрент скачан:78 раз
Смотреть онлайн Все будет хорошо | Скачать    Ребята, помогите собрать деньги на оплату серверов!!!

15-01-2016 17:07 Все будет хорошо Скачать торрент  


Все будет хорошо / Every Thing Will Be Fine


ИНФОРМАЦИЯ:
Год выпуска:2015
Страна: Германия, Канада, Франция, Швеция, Норвегия
Жанр: драма
Продолжительность: 01:54:30
Перевод: Любительский двухголосый [Parovoz Production]
Режиссер: Вим Вендерс

В Ролях:


Рэйчел МакАдамс (Sara), Джеймс Франко (Tomas Eldan), Петер Стормаре (Editor), Шарлотта Генсбур (Kate), Мари-Жозе Кроз (Ann), Патрик Бошо (Dad), Джулия Сара Стоун (Mina), Роберт Нэйлор (Christopher), Джек Фултон (Christopher 5-8 yrs old), Лайла Фицджералд (Young Mina), Питер Миллер (Fisherman), Селин Бонье (Police Officer)

Описание:
История о писателе по имени Томас, который случайно оказывается виновен в смерти ребёнка. Следующие 12 лет жизни Томаса сконцентрируются на его переживаниях из-за случившегося, а также его отношениях с Кейт, матерью погибшего ребёнка.

  • Мировая премьера:10 февраля 2015

    ТЕХ.ДАННЫЕ:
    Качество: HDRip
    Формат: AVI
    Видео: XviD, 720x304 (2.35:1), 1506 kbps, 25 fps, 0,275 bpp
    Аудио: AC3 / 2.0 / 48 kHz / 128 kbps / 16 bit


    General
    Complete name : D:\Торенты\Vsy0.Bu2et.X0r0Sh0.2015.L2.HDRip.1400MB.rustorrents.avi
    Format : AVI
    Format/Info : Audio Video Interleave
    File size : 1.37 GiB
    Duration : 1h 54mn
    Overall bit rate : 1 711 Kbps
    Writing application : VirtualDubMod 1.5.10.3 | www.virtualdub-fr.org || (build 2550/release)
    Writing library : VirtualDubMod build 2550/release

    Video
    ID : 0
    Format : MPEG-4 Visual
    Format profile : Advanced Simple@L5
    Format settings, BVOP : 2
    Format settings, QPel : No
    Format settings, GMC : No warppoints
    Format settings, Matrix : Default (MPEG)
    Codec ID : XVID
    Codec ID/Hint : XviD
    Duration : 1h 54mn
    Bit rate : 1 506 Kbps
    Width : 720 pixels
    Height : 304 pixels
    Display aspect ratio : 2.35:1
    Frame rate : 25.000 fps
    Color space : YUV
    Chroma subsampling : 4:2:0
    Bit depth : 8 bits
    Scan type : Progressive
    Compression mode : Lossy
    Bits/(Pixel*Frame) : 0.275
    Stream size : 1.20 GiB (88%)
    Writing library : XviD 1.2.1 (UTC 2008-12-04)

    Audio
    ID : 1
    Format : AC-3
    Format/Info : Audio Coding 3
    Mode extension : CM (complete main)
    Codec ID : 2000
    Duration : 1h 54mn
    Bit rate mode : Constant
    Bit rate : 128 Kbps
    Channel(s) : 2 channels
    Channel positions : Front: L R
    Sampling rate : 48.0 KHz
    Bit depth : 16 bits
    Compression mode : Lossy
    Stream size : 105 MiB (7%)
    Alignment : Split accross interleaves
    Скриншоты:

    © Оформление by .::Ворон::.
    piratbit.org
    !Ворон писал(а):

    Внимание, в релизе присутствует реклама казино. Что делать? ждать когда выложат релиз без этого (в них всегда указанно что релиз без рекламы) либо лицензию. Запретить такие темы нельзя, пока нет альтернативы.
    Реклама в новых релизах Кино?



  • Скачать Все будет хорошо через торрент https://pic1.kartinco.top/images/61/ordi9.jpg Скачать, смотреть онлайн Все будет хорошо бесплантно в хорошем качестве Описание: История о писателе по имени Томас, который случайно оказывается виновен в смерти ребёнка. Следующие 12 лет жизни Томаса ... 10 10 1
    Торрент: Зарегистрирован [2016-01-15 17:07] · скачан: 78 раз
    Статус: T временная
    Размер: 1.37 GB
    Как cкачать? Как скачать Все будет хорошо через торрент | UTorrent

    28-11-2019 20:33  

    Отключить всю рекламу на сайте

      Дорогой пользователь! Огромная просьба, поблагодарите релизера, оцените раздачу и оставьте свои комментарий, если Вы скачали Все будет хорошо через торрент бесплатно!
      Комментировать посты могут только пользователи прошедшие не сложную регистрацию
      Показать сообщения:    

      Все будет хорошо через торрент
      Скачать бесплатно Все будет хорошо
      Все будет хорошо скачать торрент
      Все будет хорошо смотреть онлайн
      Cкачать фильм Все будет хорошо бесплатно
      Все будет хорошо скачать торрент в хорошем качестве
      Все будет хорошо смотреть онлайн бесплатно в хорошем качестве


      Вы не можете начинать темы
      Вы не можете отвечать на сообщения
      Вы не можете редактировать свои сообщения
      Вы не можете удалять свои сообщения
      Вы не можете голосовать в опросах
      Вы не можете прикреплять файлы к сообщениям
      Вы можете скачивать файлы