1 сезон

3 сезон

iTunes

1

iTunes

MVO

iTunes

13

1 сезон

RePack

30

Deluxe

pack

Лицензия

ВАЖНО

ИГРА 18+

pack

RePack

MK11

RePack

jed

RePack

fifa19

RePack

RDR2

RePack

NEED FOR SPEED™ PAYBACK

4 сезон

9 сезон

Бесстыжие 9 сезон

Все сериалы

все сериалы на PB.wtf

RePack

FAR CRY 5

Anonymous, добрый вечер, мы катастрофически не успеваем собрать деньги на оплату серверов, помогите нам пожалуйста 5,10,15р., для нас важна любая помощь . В качестве благодарности мы отключим Вам всю рекламу на сайте (укажите свой ник в строку Ваше имя)!

×
  
Magnet ссылка

Участь Салема / Salem's Lot (Микаэл Саломон) [2004, ужасы, триллер, драма, DVDRip, Профессиональный (многоголосый) piratbit.org

Участь Салема через торрент piratbit.org

Размер: 1.46 GB | Добавлен: 5 лет 6 мес. назад | Торрент скачан:126 раз
Скачать  

17-01-2016 09:50 Участь Салема Скачать торрент  


Участь Салема / Salem's Lot
««В маленьком городке зло разрастается быстро»»

ИНФОРМАЦИЯ:
Год выпуска:2004
Страна: США
Жанр: ужасы, триллер, драма, детектив
Продолжительность: 03:01:07
Перевод: Профессиональный (многоголосый)
Режиссер: Микаэл Саломон

В Ролях:


Роб Лоу (Ben Mears), Андре Брогер (Matt Burke), Дональд Сазерленд (Richard Straker), Саманта Мэтис (Susan Norton), Роберт Маммоне (Dr. James Cody), Дэн Берд (Mark Petrie), Рутгер Хауэр (Kurt Barlow), Джеймс Кромуэлл (Father Donald Callahan), Энди Андерсон (Charlie Rhodes), Роберт Грубб (Larry Crockett), Стивен Видлер (Sheriff Parkins), Пенни МакНэми (Ruth Crockett)

Описание:
Салем... Еще в 17 веке этот городок прославился жуткой историей - процессом салемских ведьм... Все началось с того, что в провинциальном американском городке стали пропадать люди - поодиночке и целыми семьями.
Их не могли найти ни родственники, ни даже полиция. А когда надежда исчезла, казалось, навсегда, пропавшие вернулись, и городок содрогнулся от ужаса...

  • Мировая премьера:2 июня 2004

    ТЕХ.ДАННЫЕ:
    Качество: DVDRip
    Формат: AVI
    Видео: XviD, 656x368 (16:9), 1015 kbps, 23,976 fps, 0,176 bpp
    Аудио: MP3 / 2.0 / 48 kHz / 128 kbps /


    General
    Complete name : D:\Торенты\Раздачи\Uchast'.Salema_2004_DVDRip.avi
    Format : AVI
    Format/Info : Audio Video Interleave
    File size : 1.46 GiB
    Duration : 3h 1mn
    Overall bit rate : 1 153 Kbps
    Movie name : Uchast'.Salema_2004_DVDRip
    Director : ZobaNupa
    Writing application : VirtualDubMod 1.5.10.2 (build 2540/release)
    Copyright : Torrents.Ru

    Video
    ID : 0
    Format : MPEG-4 Visual
    Format profile : Advanced Simple@L5
    Format settings, BVOP : 1
    Format settings, QPel : No
    Format settings, GMC : No warppoints
    Format settings, Matrix : Custom
    Codec ID : XVID
    Codec ID/Hint : XviD
    Duration : 3h 1mn
    Bit rate : 1 016 Kbps
    Width : 656 pixels
    Height : 368 pixels
    Display aspect ratio : 16:9
    Frame rate : 23.976 fps
    Color space : YUV
    Chroma subsampling : 4:2:0
    Bit depth : 8 bits
    Scan type : Progressive
    Compression mode : Lossy
    Bits/(Pixel*Frame) : 0.176
    Stream size : 1.29 GiB (88%)
    Writing library : XviD 1.2.1 (UTC 2008-12-04)

    Audio
    ID : 1
    Format : MPEG Audio
    Format version : Version 1
    Format profile : Layer 3
    Codec ID : 55
    Codec ID/Hint : MP3
    Duration : 3h 1mn
    Bit rate mode : Constant
    Bit rate : 128 Kbps
    Channel(s) : 2 channels
    Sampling rate : 48.0 KHz
    Compression mode : Lossy
    Stream size : 166 MiB (11%)
    Alignment : Aligned on interleaves
    Interleave, duration : 42 ms (1.00 video frame)
    Interleave, preload duration : 504 ms
    Writing library : LAME3.98r
    Encoding settings : -m s -V 4 -q 2 -lowpass 17 -b 128
    Скриншоты:

    © Оформление by .::Ворон::.
    piratbit.org



  • Скачать Участь Салема через торрент https://pic1.kartinco.top/images/61/ordi9.jpg Скачать фильм Участь Салема через торрент бесплантно в хорошем качестве Описание: Салем... Еще в 17 веке этот городок прославился жуткой историей - процессом салемских ведьм... Все началось с того, что в ... 10 10 5
    Торрент: Зарегистрирован [2016-01-17 09:50] · скачан: 126 раз
    Статус: √ проверено
    Размер: 1.46 GB
    Как cкачать? Как скачать Участь Салема через торрент | UTorrent

    28-11-2019 20:33  

    Отключить всю рекламу на сайте

      Дорогой пользователь! Огромная просьба, поблагодарите релизера, оцените раздачу и оставьте свои комментарий, если Вы скачали Участь Салема через торрент бесплатно! Внесите свою лепту в развитие PiratBit!
      Комментировать посты могут только пользователи прошедшие не сложную регистрацию
      Показать сообщения:    

      Участь Салема через торрент
      Скачать бесплатно Участь Салема
      Участь Салема скачать торрент
      Участь Салема смотреть онлайн
      Cкачать фильм Участь Салема бесплатно
      Участь Салема скачать торрент в хорошем качестве
      Участь Салема смотреть онлайн бесплатно в хорошем качестве


      Вы не можете начинать темы
      Вы не можете отвечать на сообщения
      Вы не можете редактировать свои сообщения
      Вы не можете удалять свои сообщения
      Вы не можете голосовать в опросах
      Вы не можете прикреплять файлы к сообщениям
      Вы можете скачивать файлы