Присоединяйтесь к нам в Telegram!, здесь всегда актуальный адрес сайта, оперативная поддержка и многое другое!!

>

5.9

iTunes

7.4

iTunes

9.4

1 сезон

1

7.4

2 сезон

7.2

iTunes

7.3

1 сезон

13

6.1

iTunes

8.3

Пиратка

30

ULTIMATE

pack

9.9

Лицензия

ВАЖНО

ИГРА 18+

pack

7.3

RePack

MK11

7.7

RePack

jed

7.8

RePack

fifa19

8.5

RePack

RDR2

RePack

NEED FOR SPEED™ PAYBACK

5 сезон

9 сезон

Бесстыжие 9 сезон

Все сериалы

все сериалы на PB.wtf

RePack

FAR CRY 5

Anonymous, доброй ночи, мы катастрофически не успеваем собрать деньги на оплату серверов, помогите нам пожалуйста 5,10,15р., для нас важна любая помощь . В качестве благодарности мы отключим Вам всю рекламу на сайте (укажите свой ник в строку Ваше имя)!

×
  
Magnet ссылка

Те, кого нельзя целовать / Naomi and Ely's No Kiss List (Кристин Хангги) [2015, драма, мелодрама, комедия, WEB-DLRip, Любительский (одноголосый) (Без рекламы) piratbit.org

Те, кого нельзя целовать через торрент piratbit.org

Размер: 1.46 GB | Добавлен: 5 лет 10 мес. назад | Торрент скачан:116 раз
Смотреть онлайн Те, кого нельзя целовать | Скачать    Ребята, помогите собрать деньги на оплату серверов!!!

17-01-2016 10:37 Те, кого нельзя целовать Скачать торрент  


Те, кого нельзя целовать / Naomi and Ely's No Kiss List
««She's just a girl who loves a boy who loves a boy»»

ИНФОРМАЦИЯ:
Год выпуска:2015
Страна: США
Жанр: драма, мелодрама, комедия
Продолжительность: 01:30:32
Перевод: Любительский (одноголосый)
Режиссер: Кристин Хангги

В Ролях:


Виктория Джастис (Naomi), Пирсон Фод (Ely), Мэттью Даддарио (Gabriel), Райан Уорд (Bruce 2), Дэн Флаэрти (Boy-Robin), Гриффин Ньюман (Bruce 1), Кевин Эбернети (Club Goer), Коннор Антико (Dude is Boxer), Али Скай Беннетт (Carrie Wannabe), Gary Betsworth (Mr. McAllister), Чарльз Кэйн (Young Ely), ЭйДжей Седено (Barista)

Описание:
Главные герои - Наоми и ее друг-гей Илай. Нерушимость своей дружбы парочка решает скрепить составлением списка знакомых, с которыми дело не должно дойти до интимных отношений. Но в один прекрасный день Илай целует бойфренда Наоми, и дружбе приходит конец.

  • Мировая премьера:17 июля 2015

    ТЕХ.ДАННЫЕ:
    Качество: WEB-DLRip
    Формат: AVI
    Видео: XviD, 720x304 (2.35:1), 1717 kbps, 23,976 fps, 0,327 bpp
    Аудио №1: AC3 / 2.0 / 48 kHz / 192 kbps / Russian
    Аудио №2: AC3 / 5.1 / 48 kHz / 384 kbps / English


    General
    Complete name : D:\Торенты\Te.kogo.nelzya.celovat.2015.L1.WEBDLRip.avi
    Format : AVI
    Format/Info : Audio Video Interleave
    File size : 1.46 GiB
    Duration : 1h 30mn
    Overall bit rate : 2 308 Kbps
    Writing application : VirtualDubMod 1.5.10.3 | www.virtualdub-fr.org || (build 2550/release)
    Writing library : VirtualDubMod build 2550/release

    Video
    ID : 0
    Format : MPEG-4 Visual
    Format profile : Advanced Simple@L5
    Format settings, BVOP : 2
    Format settings, QPel : No
    Format settings, GMC : No warppoints
    Format settings, Matrix : Default (MPEG)
    Codec ID : XVID
    Codec ID/Hint : XviD
    Duration : 1h 30mn
    Bit rate : 1 718 Kbps
    Width : 720 pixels
    Height : 304 pixels
    Display aspect ratio : 2.35:1
    Frame rate : 23.976 fps
    Color space : YUV
    Chroma subsampling : 4:2:0
    Bit depth : 8 bits
    Scan type : Progressive
    Compression mode : Lossy
    Bits/(Pixel*Frame) : 0.327
    Stream size : 1.09 GiB (74%)
    Writing library : XviD 67

    Audio #1
    ID : 1
    Format : AC-3
    Format/Info : Audio Coding 3
    Mode extension : CM (complete main)
    Codec ID : 2000
    Duration : 1h 30mn
    Bit rate mode : Constant
    Bit rate : 192 Kbps
    Channel(s) : 2 channels
    Channel positions : Front: L R
    Sampling rate : 48.0 KHz
    Bit depth : 16 bits
    Compression mode : Lossy
    Stream size : 124 MiB (8%)
    Alignment : Split accross interleaves
    Interleave, duration : 42 ms (1.00 video frame)
    Interleave, preload duration : 500 ms

    Audio #2
    ID : 2
    Format : AC-3
    Format/Info : Audio Coding 3
    Mode extension : CM (complete main)
    Codec ID : 2000
    Duration : 1h 30mn
    Bit rate mode : Constant
    Bit rate : 384 Kbps
    Channel(s) : 6 channels
    Channel positions : Front: L C R, Side: L R, LFE
    Sampling rate : 48.0 KHz
    Bit depth : 16 bits
    Compression mode : Lossy
    Stream size : 249 MiB (17%)
    Alignment : Split accross interleaves
    Interleave, duration : 42 ms (1.00 video frame)
    Interleave, preload duration : 500 ms
    Скриншоты:

    © Оформление by .::Ворон::.
    piratbit.org



  • Скачать Те, кого нельзя целовать через торрент https://pic1.kartinco.top/images/61/ordi9.jpg Скачать, смотреть онлайн Те, кого нельзя целовать бесплантно в хорошем качестве Описание: Главные герои - Наоми и ее друг-гей Илай. Нерушимость своей дружбы парочка решает скрепить составлением списка знакомых, с ... 6.1 10 7
    Торрент: Зарегистрирован [2016-01-17 10:37] · скачан: 116 раз
    Статус: T временная
    Размер: 1.46 GB
    Как cкачать? Как скачать Те, кого нельзя целовать через торрент | UTorrent

    28-11-2019 20:33  

    Отключить всю рекламу на сайте

    17-01-2016 12:46 Те, кого нельзя целовать Скачать торрент  

    Цитата:

    Главные герои - Наоми и ее друг-гей Илай.

    одного предложения хватило....piratbit.org



    17-01-2016 12:59 Те, кого нельзя целовать Скачать торрент  

    Как фильм стоит глянуть, подскажите пожалуйста???? piratbit.org



    17-01-2016 16:01 Те, кого нельзя целовать Скачать торрент  

    Илай целует бойфренда Наоми, и дружбе приходит конец
    ----------------------------------------------------------------------
    Мне хватило второго предложения,чтобы всего передёрнуло.piratbit.org



    18-01-2016 07:00 Те, кого нельзя целовать Скачать торрент  

    Прекращайте гейпропаганду. Пидаросятина надоела ваша! piratbit.org



      Дорогой пользователь! Огромная просьба, поблагодарите релизера, оцените раздачу и оставьте свои комментарий, если Вы скачали Те, кого нельзя целовать через торрент бесплатно!
      Комментировать посты могут только пользователи прошедшие не сложную регистрацию
      Показать сообщения:    

      Те, кого нельзя целовать через торрент
      Скачать бесплатно Те, кого нельзя целовать
      Те, кого нельзя целовать скачать торрент
      Те, кого нельзя целовать смотреть онлайн
      Cкачать фильм Те, кого нельзя целовать бесплатно
      Те, кого нельзя целовать скачать торрент в хорошем качестве
      Те, кого нельзя целовать смотреть онлайн бесплатно в хорошем качестве


      Вы не можете начинать темы
      Вы не можете отвечать на сообщения
      Вы не можете редактировать свои сообщения
      Вы не можете удалять свои сообщения
      Вы не можете голосовать в опросах
      Вы не можете прикреплять файлы к сообщениям
      Вы можете скачивать файлы