2 сезон

iTunes

WEBRip

1

2 сезон

iTunes

1 сезон

1 сезон

RePack

30

Новинка

ВАЖНО

ИГРА 18+

pack

RePack

MK11
pack

Легкие деньги

RePack

jed

RePack

fifa19

RePack

RDR2

RePack

NEED FOR SPEED™ PAYBACK

4 сезон

9 сезон

Бесстыжие 9 сезон

Все сериалы

все сериалы на PB.wtf

RePack

FAR CRY 5

Anonymous, доброй ночи, мы не успеваем собрать деньги на оплату серверов за февраль, помогите нам пожалуйста в это трудное время. В качестве благодарности мы отключим Вам всю рекламу на сайте (укажите свой ник в строку Ваше имя)!

×
  
Magnet ссылка

Номер 44 / Child 44 (Даниэль Эспиноса) [2015, триллер, драма, BDRip-AVC] [Ukr Dub] piratbit.org

Номер 44 через торрент piratbit.org

Размер: 1.91 GB | Добавлен: 5 лет 1 мес. назад | Торрент скачан:39 раз
Скачать  

19-01-2016 15:18 Номер 44 Скачать торрент  

Номер 44 / Child 44
Год выпуска: 2015
Жанр: Триллер, драма
Выпущено: США, Великобритания, Чехия, Румыния, Etalon film, Summit Entertainment
Продолжительность: 02:17:11
Перевод: Украинский (дублированный)

Режиссер: Даниэль Эспиноса

В ролях: Том Харди, Гари Олдман, Нуми Рапас, Юэль Киннаман, Пэдди Консидайн, Джейсон Кларк, Венсан Кассель, Ксавьер Аткинс, Марк Льюис Джонс, Фарес Фарес

Описание: Действие фильма развернется в СССР времен Иосифа Сталина. Главный герой — дискредитированный офицер советской разведки Лев Демидов. Он расследует серию детских убийств, но его деятельность вызывает подозрение у параноидального советского правительства.



Качество: BDRip-AVC
Формат: MKV
Видео кодек: h.264
Аудио кодек: AC3
Видео: V_MPEG4/ISO/AVC, 1800 Кбит/с, 1024x428, 23.976 fps
Аудио: 48 kHz, AC3 Dolby Digital, 2 ch, ~192.00 kbps avg

Релиз --

Цитата:

Большое спасибо Vasua95 и Hanway за украинскую дорожку

General
Unique ID : 249789392346831402529775074769276319108 (0xBBEBAFE294CC900AA66E2D1D14F93584)
Complete name : E:\Child 44 (2015) BDRip-AVC [Hurtom].mkv
Format : Matroska
Format version : Version 4 / Version 2
File size : 1.91 GiB
Duration : 2h 17mn
Overall bit rate : 1 994 Kbps
Movie name : Номер 44.2015.Rip by: ollan
Encoded date : UTC 2016-01-19 09:12:09
Writing application : mkvmerge v7.9.0 ('Birds') 64bit
Writing library : libebml v1.3.1 + libmatroska v1.4.2
Attachements : poster.jpg

Video
ID : 1
Format : AVC
Format/Info : Advanced Video Codec
Format profile : Main@L4.1
Format settings, CABAC : Yes
Format settings, ReFrames : 8 frames
Codec ID : V_MPEG4/ISO/AVC
Duration : 2h 17mn
Bit rate : 1 800 Kbps
Width : 1 024 pixels
Height : 428 pixels
Display aspect ratio : 2.40:1
Frame rate mode : Constant
Frame rate : 23.976 fps
Color space : YUV
Chroma subsampling : 4:2:0
Bit depth : 8 bits
Scan type : Progressive
Bits/(Pixel*Frame) : 0.171
Stream size : 1.69 GiB (88%)
Writing library : x264 core 142 r2479 dd79a61
Encoding settings : cabac=1 / ref=8 / deblock=1:-1:-1 / analyse=0x1:0x131 / me=umh / subme=9 / psy=1 / psy_rd=1.00:0.15 / mixed_ref=1 / me_range=16 / chroma_me=1 / trellis=2 / 8x8dct=0 / cqm=0 / deadzone=21,11 / fast_pskip=1 / chroma_qp_offset=-3 / threads=12 / lookahead_threads=1 / sliced_threads=0 / nr=0 / decimate=1 / interlaced=0 / bluray_compat=0 / constrained_intra=0 / bframes=3 / b_pyramid=2 / b_adapt=2 / b_bias=0 / direct=3 / weightb=1 / open_gop=0 / weightp=2 / keyint=240 / keyint_min=24 / scenecut=40 / intra_refresh=0 / rc_lookahead=60 / rc=2pass / mbtree=1 / bitrate=1800 / ratetol=1.0 / qcomp=0.60 / qpmin=0 / qpmax=69 / qpstep=4 / cplxblur=20.0 / qblur=0.5 / vbv_maxrate=50000 / vbv_bufsize=62500 / nal_hrd=none / filler=0 / ip_ratio=1.40 / aq=1:1.00
Default : Yes
Forced : No
Color range : Limited
Color primaries : BT.709
Transfer characteristics : BT.709
Matrix coefficients : BT.709

Audio
ID : 2
Format : AC-3
Format/Info : Audio Coding 3
Mode extension : CM (complete main)
Format settings, Endianness : Big
Codec ID : A_AC3
Duration : 2h 17mn
Bit rate mode : Constant
Bit rate : 192 Kbps
Channel(s) : 2 channels
Channel positions : Front: L R
Sampling rate : 48.0 KHz
Compression mode : Lossy
Delay relative to video : -83ms
Stream size : 188 MiB (10%)
Language : Ukrainian
Default : Yes
Forced : No[/code]
piratbit.org



Скачать Номер 44 через торрент http://i69.fastpic.ru/big/2015/0709/08/05b68bd3b6f21d7ef8c08a0720987208.jpg Скачать фильм Номер 44 через торрент бесплантно в хорошем качестве Описание: Действие фильма развернется в СССР времен Иосифа Сталина. Главный герой — дискредитированный офицер советской разведки Лев ... 5.5 10 6
Торрент: Зарегистрирован [2016-01-19 15:18] · скачан: 39 раз
Статус: √ проверено
Размер: 1.91 GB
Как cкачать? Как скачать Номер 44 через торрент | UTorrent

% Раздел Тема Автор DL S | L
Фильмы 2015 [DVDrip, WEB-DLRip, HDrip] [ 2.18 GB ] Номер 44 / Child 44 [2015 HDRip - / ] 10oN Скачать
1 | 0
T Фильмы [HD 720p, 1080p] (Хороший звук DUB, MVO) [ 6.93 GB ] Номер 44 / Child 44 [2015 Чехия Румыния BDRip 720p - / ] _KaisiK_ Скачать
1 | 0
T Фильмы (Blu-ray, BD-Remux, HDDVD) [ 39.21 GB ] Номер 44 / Child 44 [2014 BDRemux / US Transfer / ] Ворон Скачать
1 | 0
Фильмы 2015 [DVDrip, WEB-DLRip, HDrip] [ 2.91 GB ] Номер 44 / Child 44 [2014 BDRip-AVC] Dub potroks Скачать
1 | 0
Фильмы 2015 [DVDrip, WEB-DLRip, HDrip] [ 1.46 GB ] Номер 44 / Child 44 [2015 BDRip ] Twi7ter Скачать
1 | 0
Фильмы 2015 [DVDrip, WEB-DLRip, HDrip] [ 1.37 GB ] Номер 44 / Child 44 [2015 HDRip - / ] Newton5 Скачать
1 | 0
Фильмы 2015 [DVDrip, WEB-DLRip, HDrip] [ 2.05 GB ] Номер 44 / Child 44 [2015 WEB-DLRip - / ] Ворон Скачать
1 | 0

28-11-2019 20:33  

Отключить всю рекламу на сайте

19-01-2016 15:37 Номер 44 Скачать торрент  

честно говоря фильм разочаровал. и тема интересная, и новый взгляд на старое время, но очень нудно и долго всё тянется. полчаса явно лишнихpiratbit.org



19-01-2016 15:38 Номер 44 Скачать торрент  

А разве его не запрещали в России????piratbit.org



19-01-2016 16:58 Номер 44 Скачать торрент  

если закрыть глаза на то,как американцы видят советскую Влacть,то фильм смотрибельный! Мне сюжет понравился.piratbit.org



    Дорогой пользователь! Огромная просьба, поблагодарите релизера, оцените раздачу и оставьте свои комментарий, если Вы скачали Номер 44 через торрент бесплатно! Внесите свою лепту в развитие PiratBit!
    Комментировать посты могут только пользователи прошедшие не сложную регистрацию
    Показать сообщения:    

    Номер 44 через торрент
    Скачать бесплатно Номер 44
    Номер 44 скачать торрент
    Номер 44 смотреть онлайн
    Cкачать фильм Номер 44 бесплатно
    Номер 44 скачать торрент в хорошем качестве
    Номер 44 смотреть онлайн бесплатно в хорошем качестве


    Вы не можете начинать темы
    Вы не можете отвечать на сообщения
    Вы не можете редактировать свои сообщения
    Вы не можете удалять свои сообщения
    Вы не можете голосовать в опросах
    Вы не можете прикреплять файлы к сообщениям
    Вы можете скачивать файлы