Присоединяйтесь к нам в Telegram!, здесь всегда актуальный адрес сайта, оперативная поддержка и многое другое!!

>

5.9

iTunes

7.4

iTunes

9.4

1 сезон

1

7.4

2 сезон

7.2

iTunes

7.3

1 сезон

13

6.1

iTunes

8.3

GOG

30

ULTIMATE

pack

9.9

Лицензия

ВАЖНО

ИГРА 18+

pack

7.3

RePack

MK11

7.7

RePack

jed

7.8

RePack

fifa19

8.5

RePack

RDR2

RePack

NEED FOR SPEED™ PAYBACK

5 сезон

9 сезон

Бесстыжие 9 сезон

Все сериалы

все сериалы на PB.wtf

RePack

FAR CRY 5

Anonymous, добрый день, мы катастрофически не успеваем собрать деньги на оплату серверов, помогите нам пожалуйста 5,10,15р., для нас важна любая помощь . В качестве благодарности мы отключим Вам всю рекламу на сайте (укажите свой ник в строку Ваше имя)!

×
  
Magnet ссылка

Психбольница Бедлам / Bedlam (Чю Баркер) [2015, триллер, DVDRip, Любительский одноголосый [Xixidok] piratbit.org

Психбольница Бедлам через торрент piratbit.org

Размер: 1.47 GB | Добавлен: 5 лет 10 мес. назад | Торрент скачан:279 раз
Смотреть онлайн Психбольница Бедлам | Скачать    Ребята, помогите собрать деньги на оплату серверов!!!

21-01-2016 11:13 Психбольница Бедлам Скачать торрент  


Психбольница Бедлам / Bedlam
««Treatment Begins...»»

ИНФОРМАЦИЯ:
Год выпуска:2015
Страна: Австралия
Жанр: триллер
Продолжительность: 01:42:09
Перевод: Любительский одноголосый [Xixidok]
Режиссер: Чю Баркер

В Ролях:


Гай Эдмондс (George Kilner), Джон Боксер (Keeper), Питер МакАллум (Dr. Black), Кассандра Суоби (Sofia Louis), Гари Болтер (Cutter), Грег Хаттон (Orderly Sam), Аманда Мэрсден (Nurse Peters), Matthew Blackwood-Hume (George's Uncle), Пенни Дэй (George's Mother), Mark Dessaix (Castel), Harry Gray (Young George), Adam Hatz (Scrimshaw)

Описание:
Джордж получил шизофрению по наследственности. Он приходит в психбольницу Бедлам, чтоб вылечиться от нее. Но мир Бедлама еще темнее, чем его внутренние демоны. Если сперва он боролся, чтоб остаться в здравом уме, то, теперь он хочет просто выжить. Добро пожаловать в Бедлам.
P.s. Фильм снят по реальным событиям.На данный момент из психбольницы создан музей.

  • Мировая премьера:16 марта 2015

    ТЕХ.ДАННЫЕ:
    Качество: DVDRip
    Формат: AVI
    Видео: XviD, 720x400 (16:9), 1586 kbps, 59,940 fps, 0,092 bpp
    Аудио №1: AC3 / 2.0 / 48 kHz / 192 kbps / Russian
    Аудио №2: AC3 / 2.0 / 48 kHz / 192 kbps / English


    General
    Complete name : D:\Торенты\6egJlaM.2015.L1.DVDRip.avi
    Format : AVI
    Format/Info : Audio Video Interleave
    File size : 1.47 GiB
    Duration : 1h 42mn
    Overall bit rate : 2 063 Kbps
    Writing application : VirtualDubMod 1.5.10.3 | www.virtualdub-fr.org || (build 2550/release)
    Writing library : VirtualDubMod build 2550/release

    Video
    ID : 0
    Format : MPEG-4 Visual
    Format profile : Advanced Simple@L5
    Format settings, BVOP : 1
    Format settings, QPel : No
    Format settings, GMC : No warppoints
    Format settings, Matrix : Custom
    Codec ID : XVID
    Codec ID/Hint : XviD
    Duration : 1h 42mn
    Bit rate : 1 586 Kbps
    Width : 720 pixels
    Height : 400 pixels
    Display aspect ratio : 16:9
    Frame rate : 59.940 fps
    Color space : YUV
    Chroma subsampling : 4:2:0
    Bit depth : 8 bits
    Scan type : Progressive
    Compression mode : Lossy
    Bits/(Pixel*Frame) : 0.092
    Stream size : 1.13 GiB (77%)
    Writing library : XviD 73

    Audio #1
    ID : 1
    Format : AC-3
    Format/Info : Audio Coding 3
    Mode extension : CM (complete main)
    Codec ID : 2000
    Duration : 1h 42mn
    Bit rate mode : Constant
    Bit rate : 192 Kbps
    Channel(s) : 2 channels
    Channel positions : Front: L R
    Sampling rate : 48.0 KHz
    Bit depth : 16 bits
    Compression mode : Lossy
    Stream size : 140 MiB (9%)
    Alignment : Split accross interleaves

    Audio #2
    ID : 2
    Format : AC-3
    Format/Info : Audio Coding 3
    Mode extension : CM (complete main)
    Codec ID : 2000
    Duration : 1h 42mn
    Bit rate mode : Constant
    Bit rate : 192 Kbps
    Channel(s) : 2 channels
    Channel positions : Front: L R
    Sampling rate : 48.0 KHz
    Bit depth : 16 bits
    Compression mode : Lossy
    Stream size : 140 MiB (9%)
    Alignment : Split accross interleaves
    Скриншоты:

    © Оформление by .::Ворон::.
    piratbit.org



  • Скачать Психбольница Бедлам через торрент https://pic1.kartinco.top/images/61/ordi9.jpg Скачать, смотреть онлайн Психбольница Бедлам бесплантно в хорошем качестве Описание: Джордж получил шизофрению по наследственности. Он приходит в психбольницу Бедлам, чтоб вылечиться от нее. Но мир Бедлама еще ... 10 10 7
    Торрент: Зарегистрирован [2016-01-21 11:13] · скачан: 279 раз
    Статус: # сомнительно
    Размер: 1.47 GB
    Как cкачать? Как скачать Психбольница Бедлам через торрент | UTorrent

    28-11-2019 20:33  

    Отключить всю рекламу на сайте

    21-01-2016 12:10 Психбольница Бедлам Скачать торрент  

    Хорошее место Бедламом не назовут.piratbit.org



    21-01-2016 13:14 Психбольница Бедлам Скачать торрент  

    Никто не пишет как фильм,все испугались что-ли?piratbit.org



    21-01-2016 13:48 Психбольница Бедлам Скачать торрент  

    mehanov2010 писал(а):

    Никто не пишет как фильм,все испугались что-ли?

    ага, звуковой дорожки Xixidokpiratbit.org



    21-01-2016 15:59 Психбольница Бедлам Скачать торрент  

    mehanov2010 писал(а):

    Никто не пишет как фильм,все испугались что-ли?

    Я бы это фильмом не назвал бред сумасшедшего а режиссер больной уродpiratbit.org



      Дорогой пользователь! Огромная просьба, поблагодарите релизера, оцените раздачу и оставьте свои комментарий, если Вы скачали Психбольница Бедлам через торрент бесплатно!
      Комментировать посты могут только пользователи прошедшие не сложную регистрацию
      Показать сообщения:    

      Психбольница Бедлам через торрент
      Скачать бесплатно Психбольница Бедлам
      Психбольница Бедлам скачать торрент
      Психбольница Бедлам смотреть онлайн
      Cкачать фильм Психбольница Бедлам бесплатно
      Психбольница Бедлам скачать торрент в хорошем качестве
      Психбольница Бедлам смотреть онлайн бесплатно в хорошем качестве


      Вы не можете начинать темы
      Вы не можете отвечать на сообщения
      Вы не можете редактировать свои сообщения
      Вы не можете удалять свои сообщения
      Вы не можете голосовать в опросах
      Вы не можете прикреплять файлы к сообщениям
      Вы можете скачивать файлы