Присоединяйтесь к нам в Telegram!, здесь всегда актуальный адрес сайта, оперативная поддержка и многое другое!!

>

5.9

iTunes

7.4

iTunes

9.4

1 сезон

1

7.4

2 сезон

7.2

iTunes

7.3

1 сезон

13

6.1

iTunes

8.3

Пиратка

30

ULTIMATE

pack

9.9

Лицензия

ВАЖНО

ИГРА 18+

pack

7.3

RePack

MK11

7.7

RePack

jed

7.8

RePack

fifa19

8.5

RePack

RDR2

RePack

NEED FOR SPEED™ PAYBACK

5 сезон

9 сезон

Бесстыжие 9 сезон

Все сериалы

все сериалы на PB.wtf

RePack

FAR CRY 5

Anonymous, добрый вечер, мы катастрофически не успеваем собрать деньги на оплату серверов, помогите нам пожалуйста 5,10,15р., для нас важна любая помощь . В качестве благодарности мы отключим Вам всю рекламу на сайте (укажите свой ник в строку Ваше имя)!

×
  
Magnet ссылка

Уже скучаю по тебе / Miss You Already (Кэтрин Хардвик) [2015, драма, мелодрама, комедия, WEB-DLRip, Любительский двухголосый [Parovoz Production] piratbit.org

Уже скучаю по тебе через торрент piratbit.org

Размер: 1.45 GB | Добавлен: 5 лет 10 мес. назад | Торрент скачан:247 раз
Смотреть онлайн Уже скучаю по тебе | Скачать    Ребята, помогите собрать деньги на оплату серверов!!!

23-01-2016 13:59 Уже скучаю по тебе Скачать торрент  


Уже скучаю по тебе / Miss You Already
««When life falls apart, friends keep it together»»

ИНФОРМАЦИЯ:
Год выпуска:2015
Страна: Великобритания
Жанр: драма, мелодрама, комедия
Продолжительность: 01:47:48
Перевод: Любительский двухголосый [Parovoz Production]
Режиссер: Кэтрин Хардвик

В Ролях:


Дрю Бэрримор (Jess), Тони Коллетт (Milly), Доминик Купер (Kit), Пэдди Консидайн (Jago), Тайсон Риттер (Ace), Мем Ферда (Ahmed), Ной Хантли (Company executive), Жаклин Биссет (Miranda), Дженис Аккуа (Nisha), Шарлотта Уббен (Cheryl), Шола Адевузи (Athena), Хонор Книфси (Scarlett)

Описание:
Картина рассказывает о двух лучших подругах, знакомых чуть ли не всю жизнь, чьи отношения разваливаются на части после того, как одна из них заболевает, а другая обнаруживает, что ждет ребенка.

  • Мировая премьера:12 сентября 2015

    ТЕХ.ДАННЫЕ:
    Качество: WEB-DLRip
    Формат: AVI
    Видео: XviD, 720x304 (2.35:1), 1653 kbps, 24 fps, 0,315 bpp
    Аудио: AC3 / 2.0 / 48 kHz / 192 kbps / 16 bit


    General
    Complete name : D:\Торенты\Uj3.SkU4aU.5o.3eBe.2015.L2.WEB-DLRip.1490MB.avi
    Format : AVI
    Format/Info : Audio Video Interleave
    File size : 1.45 GiB
    Duration : 1h 47mn
    Overall bit rate : 1 931 Kbps
    Writing application : VirtualDubMod 1.5.10.3 | www.virtualdub-fr.org || (build 2550/release)
    Writing library : VirtualDubMod build 2550/release

    Video
    ID : 0
    Format : MPEG-4 Visual
    Format profile : Advanced Simple@L5
    Format settings, BVOP : 2
    Format settings, QPel : No
    Format settings, GMC : No warppoints
    Format settings, Matrix : Default (MPEG)
    Codec ID : XVID
    Codec ID/Hint : XviD
    Duration : 1h 47mn
    Bit rate : 1 654 Kbps
    Width : 720 pixels
    Height : 304 pixels
    Display aspect ratio : 2.35:1
    Frame rate : 24.000 fps
    Color space : YUV
    Chroma subsampling : 4:2:0
    Bit depth : 8 bits
    Scan type : Progressive
    Compression mode : Lossy
    Bits/(Pixel*Frame) : 0.315
    Stream size : 1.25 GiB (86%)
    Writing library : XviD 1.2.1 (UTC 2008-12-04)

    Audio
    ID : 1
    Format : AC-3
    Format/Info : Audio Coding 3
    Mode extension : CM (complete main)
    Codec ID : 2000
    Duration : 1h 47mn
    Bit rate mode : Constant
    Bit rate : 192 Kbps
    Channel(s) : 2 channels
    Channel positions : Front: L R
    Sampling rate : 48.0 KHz
    Bit depth : 16 bits
    Compression mode : Lossy
    Stream size : 148 MiB (10%)
    Alignment : Split accross interleaves
    Скриншоты:

    © Оформление by .::Ворон::.
    piratbit.org
    !Ворон писал(а):

    Присутствует реклама казино, в начале и конце фильма.



  • Скачать Уже скучаю по тебе через торрент https://pic1.kartinco.top/images/61/ordi9.jpg Скачать, смотреть онлайн Уже скучаю по тебе бесплантно в хорошем качестве Описание: Картина рассказывает о двух лучших подругах, знакомых чуть ли не всю жизнь, чьи отношения разваливаются на части после того, как ... 10 10 5
    Торрент: Зарегистрирован [2016-01-23 13:59] · скачан: 247 раз
    Статус: T временная
    Размер: 1.45 GB
    Как cкачать? Как скачать Уже скучаю по тебе через торрент | UTorrent

    28-11-2019 20:33  

    Отключить всю рекламу на сайте

    23-01-2016 14:08 Уже скучаю по тебе Скачать торрент  

    эти Parovoz Production клонировали себя там что ли по десятку фильмов за неделю штампуютpiratbit.org



    23-01-2016 17:22 Уже скучаю по тебе Скачать торрент  

    killermax2013 писал(а):

    эти Parovoz Production клонировали себя там что ли по десятку фильмов за неделю штампуют

    Дак казино платитpiratbit.org



    23-01-2016 17:26 Уже скучаю по тебе Скачать торрент  

    Dante1987 писал(а):

    killermax2013 писал(а):

    эти Parovoz Production клонировали себя там что ли по десятку фильмов за неделю штампуют

    Дак казино платит

    Лучше бы они newstudio платили за озвучку фильмов, хотя ньюсам в разы больше пришлось бы платить piratbit.org



    23-01-2016 22:55 Уже скучаю по тебе Скачать торрент  

    Мужики, как фильм? смотрительно?piratbit.org



    25-01-2016 17:27 Уже скучаю по тебе Скачать торрент  

    nbantkmrf писал(а):

    Мужики, как фильм? смотрительно?

    Да фильм то неплох, но больно уж как бы это сказать бабский чтоли. С девушкой или женой думаю посмотреть можно а одному смотреть такое ну его нафиг.piratbit.org



      Дорогой пользователь! Огромная просьба, поблагодарите релизера, оцените раздачу и оставьте свои комментарий, если Вы скачали Уже скучаю по тебе через торрент бесплатно!
      Комментировать посты могут только пользователи прошедшие не сложную регистрацию
      Показать сообщения:    

      Уже скучаю по тебе через торрент
      Скачать бесплатно Уже скучаю по тебе
      Уже скучаю по тебе скачать торрент
      Уже скучаю по тебе смотреть онлайн
      Cкачать фильм Уже скучаю по тебе бесплатно
      Уже скучаю по тебе скачать торрент в хорошем качестве
      Уже скучаю по тебе смотреть онлайн бесплатно в хорошем качестве


      Вы не можете начинать темы
      Вы не можете отвечать на сообщения
      Вы не можете редактировать свои сообщения
      Вы не можете удалять свои сообщения
      Вы не можете голосовать в опросах
      Вы не можете прикреплять файлы к сообщениям
      Вы можете скачивать файлы