1 сезон

3 сезон

iTunes

1

iTunes

DUB Netflix

iTunes

13

1 сезон

RePack

30

Deluxe

pack

Легкие деньги

ВАЖНО

ИГРА 18+

pack

RePack

MK11

RePack

jed

RePack

fifa19

RePack

RDR2

RePack

NEED FOR SPEED™ PAYBACK

4 сезон

9 сезон

Бесстыжие 9 сезон

Все сериалы

все сериалы на PB.wtf

RePack

FAR CRY 5

Anonymous, добрый день, мы не успеваем до 1 числа собрать деньги на оплату серверов, помогите нам пожалуйста в это трудное время. В качестве благодарности мы отключим Вам всю рекламу на сайте (укажите свой ник в строку Ваше имя)!

×
  
Magnet ссылка

Интерны (14 сезон: 1-20 серии из 20) (Максим Пежемский, Дина Штурманова) [2016 г., Комедия, DVB Оригинал] piratbit.org

Интерны через торрент piratbit.org

Размер: 12.08 GB | Добавлен: 5 лет 3 мес. назад | Торрент скачан:424 раза
Скачать  

27-01-2016 21:05 Интерны Скачать торрент  

Интерны (14 сезон)
Год выпуска: 2016
Страна: Россия
Жанр: Комедия
Продолжительность:20 x ~ 00:24:00
Перевод: Оригинал
Субтитры: Нет

Режиссер: Максим Пежемский, Дина Штурманова

В ролях: Иван Охлобыстин, Илья Глинников, Вадим Демчог, Светлана Камынина, Юлия Назаренко-Благая, Один Ланд Байрон, Светлана Пермякова, Александр Ляпин, Аглая Тарасова, Яна Гурьянова, Азамат Мусагалиев

Описание: Сериал посвящён работе молодых неопытных интернов, постоянно попадающих в смешные и нелепые ситуации. Их руководитель — заведующий терапевтическим отделением Андрей Евгеньевич Быков — постоянно над ними подшучивает. Помогают Быкову и наблюдают за приключениями интернов его друг — заведующий кожно-венерологическим отделением Иван Натанович Купитман и старшая медсестра терапевтического отделения Любовь Михайловна Скрябина (некоторое время — Маргарита Павловна Королёва). Наводит порядок в больнице главврач Анастасия Константиновна Кисегач.

Качество: DVB
Формат: TS
Видео кодек: MPEG2
Аудио кодек: MP2
Видео: MPEG-2 (768x576),2 983 Кбит/с, 25.000 кадра/сек
Аудио#1: MP2, 2 ch,192 kbps (Rus) 48.0 KHz Русский
Аудио#2: MP2, 2 ch,160 kbps (Rus) 48.0 KHz Русский
скриншот   скриншот   скриншот  

Тип потока: Видео
Длительность: 00:23:44
Кодек: MPEG Video
Кодек/профиль: Main@Main
Кодек/ID: 2
Кодек/версия: Version 2
Размеры изображения: 768 x 576 (4:3)
Частота кадров: 25.000 fps
Размер потока: 507 MiB (85%)
Битрейт: 2 983 Kbps
Битрейт/макс: 15.0 Mbps
Битрейт/тип: VBR
Метод сжатия: Lossy
Стандарт: PAL
Цветовое пространство: YUV
Тип развёртки: Interlaced
Колориметрия: 4:2:0
Глубина: 8 bits
:
Тип потока: Звук #1
Язык: Russian
Длительность: 00:23:44.856
Кодек: MPEG Audio
Кодек/профиль: Layer 2
Кодек/ID: 3
Частота дискретизации: 48.0 KHz
Каналов: 2 channels
Битрейт: 192 Kbps
Битрейт/тип: Constant
Размер потока: 32.6 MiB (5%)
Метод сжатия: Lossy
:
Тип потока: Звук #2
Язык: Russian
Длительность: 00:23:44.856
Кодек: MPEG Audio
Кодек/профиль: Layer 2
Кодек/ID: 3
Частота дискретизации: 48.0 KHz
Каналов: 2 channels
Битрейт: 160 Kbps
Битрейт/тип: Constant
Размер потока: 27.2 MiB (5%)
Метод сжатия: Lossy

Внимание! Раздача ведётся путём добавления новых серий; при каждом добавлении создётся новый торрент. Чтобы начать докачку новой серии, пользователям необходимо сделать следующее:
Остановить скачивание,
Удалить старый торрент у себя из клиента (старые серии удалять не надо),
Скачать новый торрент и запустить его у себя в клиенте вместо старого, при этом указать клиенту путь в старую папку куда и должно происходить скачивание новых серий.
Ваш клиент при этом должен произвести хеширование (проверку) старой папки (если не производит сам - помогите ему сделать это), и будет докачивать только те серии которых у вас ещё нет. Старые серии при этом не удаляются, а продолжают раздаваться!

Eсли вы уже удалили старые серии, то предотвратить повторную закачку старых серий можно, отжав галочку в соответсвующих местах при запуске нового торрента. По возможности, желательно не удалять старые серии как можно дольше чтобы релизёр не столько продолжал раздавать старые серии, а смог сконцентрироваться на новых.
ДОБАВЛЕНА 18-20 СЕРИЯ ПЕРЕЗАЛЕЙТЕ ТОРРЕНТ ФАИЛpiratbit.org



Скачать Интерны через торрент https://pic1.kartinco.top/images/10/te5yd.jpg Скачать фильм Интерны через торрент бесплантно в хорошем качестве Описание: Сериал посвящён работе молодых неопытных интернов, постоянно попадающих в смешные и нелепые ситуации. Их руководитель — ... 9.4 10 42
Info! Золотая раздача, скачанное не засчитывается.
Торрент: Зарегистрирован [2016-02-26 05:23] · скачан: 424 раз
Статус: √ проверено
Размер: 12.08 GB
Как cкачать? Как скачать Интерны через торрент | UTorrent

% Раздел Тема Автор DL S | L
TNT serials [ 37.67 GB ] Интерны 1-7 сезоны/ 1-140 серий из 140 [2010-2012 DVDRip HQSATRip Оригинал] dotWizard Скачать
1 | 0
Порно фильмы HD [ 6.43 GB ] Мой Анальный Интерн / My Anal Intern [2016 Gonzo Anal WEB-DL 1080p Оригинальный] nn99nn Скачать
1 | 0
TNT serials [ 13.67 GB ] Интерны [Максим Пежемский Заур Болотаев Милан Килибарда 2010 комедийный сериал DVDRip] segg@ Скачать
1 | 0
TNT serials [ 5.81 GB ] Интерны / Сезон: 14 / Серии 1-20 из 20 [2016 Россия SATRip) GEKADOL Скачать
1 | 0
TNT serials [ 83.66 GB ] Интерны + Фильм о фильме 1-2 части / Сезон: 1 -14 / Серии: 1-280 из 280 [2010-2016 DVDRip SATRip WEB-DLRip] den7z8 Скачать
1 | 1
TNT serials [ 7.68 GB ] Интерны [2012 Комедийный сериал SATRip] wekotila Скачать
1 | 0
TNT serials [ 12.45 GB ] Интерны / Сезон: 10 / Серии: 1-23 из 23 [2013 ситком WEBRip 720p] kera Скачать
1 | 0


Последний раз редактировалось: Бумер (2016-02-26 05:22), всего редактировалось 10 раз(а)

28-11-2019 20:33  

Отключить всю рекламу на сайте


29-01-2016 17:15 Интерны Скачать торрент  

классические интерны , с старым составом.piratbit.org



05-02-2016 10:53 Интерны Скачать торрент  

sadsad48 писал(а):

классические интерны , с старым составом.

Как- никак финальный сезон.)piratbit.org



09-02-2016 11:38 Интерны Скачать торрент  

Как родные уже стали)Жалко расставаться,но как сказал Охлобыстин в перископе"Ничто не вечно".piratbit.org



09-02-2016 11:46 Интерны Скачать торрент  

хотел вот узнать, вот выкладывают ещё в качестве Web-dl и логотип TNT однотонный полупрозрачный и сама картинка широкоформатная, не как здесь. Это откуда такая запись интересно узнать?piratbit.org



19-02-2016 14:25 Интерны Скачать торрент  

5000тысяч очков золотоpiratbit.org



    Дорогой пользователь! Огромная просьба, поблагодарите релизера, оцените раздачу и оставьте свои комментарий, если Вы скачали Интерны через торрент бесплатно! Внесите свою лепту в развитие PiratBit!
    Комментировать посты могут только пользователи прошедшие не сложную регистрацию
    Показать сообщения:    

    Интерны через торрент
    Скачать бесплатно Интерны
    Интерны скачать торрент
    Интерны смотреть онлайн
    Cкачать фильм Интерны бесплатно
    Интерны скачать торрент в хорошем качестве
    Интерны смотреть онлайн бесплатно в хорошем качестве


    Вы не можете начинать темы
    Вы не можете отвечать на сообщения
    Вы не можете редактировать свои сообщения
    Вы не можете удалять свои сообщения
    Вы не можете голосовать в опросах
    Вы не можете прикреплять файлы к сообщениям
    Вы можете скачивать файлы