Присоединяйтесь к нам в Telegram!, здесь всегда актуальный адрес сайта, оперативная поддержка и многое другое!!

>

5.9

iTunes

7.4

iTunes

9.4

1 сезон

1

7.4

2 сезон

7.2

iTunes

7.3

1 сезон

13

6.1

iTunes

8.3

GOG

30

ULTIMATE

pack

9.9

Лицензия

ВАЖНО

ИГРА 18+

pack

7.3

RePack

MK11

7.7

RePack

jed

7.8

RePack

fifa19

8.5

RePack

RDR2

RePack

NEED FOR SPEED™ PAYBACK

5 сезон

9 сезон

Бесстыжие 9 сезон

Все сериалы

все сериалы на PB.wtf

RePack

FAR CRY 5

Anonymous, добрый день, мы катастрофически не успеваем собрать деньги на оплату серверов, помогите нам пожалуйста 5,10,15р., для нас важна любая помощь . В качестве благодарности мы отключим Вам всю рекламу на сайте (укажите свой ник в строку Ваше имя)!

×
  
Magnet ссылка

Вокзал / Terminus (Marc Furmie) [2015, Австралия, фантастика, WEB-DLRip, Любительский (одноголосый)[datynet] piratbit.org

Вокзал через торрент piratbit.org

Размер: 1.44 GB | Добавлен: 5 лет 9 мес. назад | Торрент скачан:265 раз
Смотреть онлайн Вокзал | Скачать    Ребята, помогите собрать деньги на оплату серверов!!!

30-01-2016 04:03 Вокзал Скачать торрент  

Вокзал / Terminus


  • Год выпуска: 2015
  • Страна: Австралия
  • Жанр: фантастика
  • Продолжительность: 01:33:40
  • Перевод: Любительский (одноголосый)[datynet]

  • Режиссер: Marc Furmie
  • В ролях:

    Jai Koutrae (David Chamberlain), Кендра Эпплтон (Annabelle Chamberlain), Тодд Ласанс (Zach), Брен Фостер (Agent Stipe), Брендан Клиркин (Ned Wilcox), Vincent Andriano (O'Mally), Уильям Эммонс (Agent Lubinski), Кэтерин Хикс (Jane Chamberlain), Стив Ле Маркванд (Sherriff Williams), John Manning (Tony Cerillo), Tatiana Ikasovic (Vera), Аарон Скалли (Mickey)


  • Оказавшись, в результате несчастного случая, на грани между жизнью и смертью, Дэвид Чемберлен делает беспрецедентное открытие, которое предопределит не только судьбу его семьи, но и судьбу всего человечества...
  • Рейтинг:



  • Качество: WEB-DLRip
  • Формат: :AVI
  • Видео кодек: XviD
  • Аудио кодек: AC3
  • Видео: 720x304 (2.35:1), 1749 kbps, 24 fps, 0,333 bpp
  • Аудио: 5.1 / 48 kHz / 448 kbps / 16 bit
  • Релиз от: GEKADOL

    Код:

    General
    Complete name                            : G:\Terminus.2015.HDRip.avi
    Format                                   : AVI
    Format/Info                              : Audio Video Interleave
    File size                                : 1.44 GiB
    Duration                                 : 1h 33mn
    Overall bit rate                         : 2 207 Kbps
    Writing application                      : AVI-Mux GUI 1.17.8.3, Feb 16 201019:42:50
    Writing library                          : VirtualDub build 35576/release

    Video
    ID                                       : 0
    Format                                   : MPEG-4 Visual
    Format profile                           : Advanced Simple@L5
    Format settings, BVOP                    : 2
    Format settings, QPel                    : No
    Format settings, GMC                     : No warppoints
    Format settings, Matrix                  : Default (H.263)
    Muxing mode                              : Packed bitstream
    Codec ID                                 : XVID
    Codec ID/Hint                            : XviD
    Duration                                 : 1h 33mn
    Bit rate                                 : 1 750 Kbps
    Width                                    : 720 pixels
    Height                                   : 304 pixels
    Display aspect ratio                     : 2.35:1
    Frame rate                               : 24.000 fps
    Color space                              : YUV
    Chroma subsampling                       : 4:2:0
    Bit depth                                : 8 bits
    Scan type                                : Progressive
    Compression mode                         : Lossy
    Bits/(Pixel*Frame)                       : 0.333
    Stream size                              : 1.14 GiB (79%)
    Writing library                          : XviD 66

    Audio
    ID                                       : 1
    Format                                   : AC-3
    Format/Info                              : Audio Coding 3
    Mode extension                           : CM (complete main)
    Codec ID                                 : 2000
    Duration                                 : 1h 33mn
    Bit rate mode                            : Constant
    Bit rate                                 : 448 Kbps
    Channel(s)                               : 6 channels
    Channel positions                        : Front: L C R, Side: L R, LFE
    Sampling rate                            : 48.0 KHz
    Bit depth                                : 16 bits
    Compression mode                         : Lossy
    Stream size                              : 300 MiB (20%)
    Alignment                                : Aligned on interleaves
    Interleave, duration                     : 42 ms (1.00 video frame)
    Interleave, preload duration             : 512 ms




    Скриншоты:



    piratbit.org



  • Скачать Вокзал через торрент http://i76.fastpic.ru/big/2016/0130/68/549f8e9315a18da57c113e346b95b968.jpg Скачать, смотреть онлайн Вокзал бесплантно в хорошем качестве qw.png Оказавшись, в результате несчастного случая, на грани между жизнью и смертью, Дэвид Чемберлен делает беспрецедентное открытие, ... 9.9 10 9
    Торрент: Зарегистрирован [2016-01-30 04:03] · скачан: 265 раз
    Статус: T временная
    Размер: 1.44 GB
    Как cкачать? Как скачать Вокзал через торрент | UTorrent

    % Раздел Тема Автор DL S | L
    T Фильмы 2015 [DVDrip, WEB-DLRip, HDrip] [ 1.36 GB ] Вокзал / Terminus [2015 WEB-DLRip Любительский ][Paradox & Omskbird records ] $-DRON-$ Скачать
    1 | 0
    T Фильмы (WEB-DL 720p, 1080p) [ 3.48 GB ] Вокзал / Terminus [2015 Австралия WEB-DL 1080p Любительский [datynet] + ENG GEKADOL Скачать
    1 | 0
    T Фильмы (WEB-DL 720p, 1080p) [ 3.29 GB ] Вокзал / Terminus [2015 Австралия WEB-DL 720p Любительский [datynet] + ENG GEKADOL Скачать
    1 | 0

    28-11-2019 20:33  

    Отключить всю рекламу на сайте

    30-01-2016 09:03 Вокзал Скачать торрент  

    СПС !! Будем посмотреть ....piratbit.org



    30-01-2016 12:45 Вокзал Скачать торрент  

    Звук бежит вперед секунд на 10, смотреть невозможноpiratbit.org



    30-01-2016 19:04 Вокзал Скачать торрент  

    Семпл с озвучкой (голосом) нельзя нарезать было, кот в мешке.
    За раздачу спасибо, но качать не буду.piratbit.org



      Дорогой пользователь! Огромная просьба, поблагодарите релизера, оцените раздачу и оставьте свои комментарий, если Вы скачали Вокзал через торрент бесплатно!
      Комментировать посты могут только пользователи прошедшие не сложную регистрацию
      Показать сообщения:    

      Вокзал через торрент
      Скачать бесплатно Вокзал
      Вокзал скачать торрент
      Вокзал смотреть онлайн
      Cкачать фильм Вокзал бесплатно
      Вокзал скачать торрент в хорошем качестве
      Вокзал смотреть онлайн бесплатно в хорошем качестве


      Вы не можете начинать темы
      Вы не можете отвечать на сообщения
      Вы не можете редактировать свои сообщения
      Вы не можете удалять свои сообщения
      Вы не можете голосовать в опросах
      Вы не можете прикреплять файлы к сообщениям
      Вы можете скачивать файлы