Присоединяйтесь к нам в Telegram!, здесь всегда актуальный адрес сайта, оперативная поддержка и многое другое!!

>

5.9

iTunes

7.4

iTunes

9.4

1 сезон

1

7.4

2 сезон

7.2

iTunes

7.3

1 сезон

13

6.1

iTunes

8.3

GOG

30

ULTIMATE

pack

9.9

Лицензия

ВАЖНО

ИГРА 18+

pack

7.3

RePack

MK11

7.7

RePack

jed

7.8

RePack

fifa19

8.5

RePack

RDR2

RePack

NEED FOR SPEED™ PAYBACK

5 сезон

9 сезон

Бесстыжие 9 сезон

Все сериалы

все сериалы на PB.wtf

RePack

FAR CRY 5

Anonymous, доброе утро, мы катастрофически не успеваем собрать деньги на оплату серверов, помогите нам пожалуйста 5,10,15р., для нас важна любая помощь . В качестве благодарности мы отключим Вам всю рекламу на сайте (укажите свой ник в строку Ваше имя)!

×
  
Magnet ссылка

Правда / Truth (Джеймс Вандербилт) [2015, драма, биография, HDRip, Любительский (двухголосый) piratbit.org

Правда через торрент piratbit.org

Размер: 1.45 GB | Добавлен: 5 лет 9 мес. назад | Торрент скачан:78 раз
Смотреть онлайн Правда | Скачать    Ребята, помогите собрать деньги на оплату серверов!!!

01-02-2016 15:22 Правда Скачать торрент  


Правда / Truth


ИНФОРМАЦИЯ:
Год выпуска:2015
Страна: Австралия, США
Жанр: драма, биография
Продолжительность: 02:05:23
Перевод: Любительский (двухголосый)
Режиссер: Джеймс Вандербилт

В Ролях:


Кейт Бланшетт (Mary Mapes), Роберт Редфорд (Dan Rather), Тофер Грейс (Mike Smith), Деннис Куэйд (Lt. Colonel Roger Charles), Элизабет Мосс (Lucy Scott), Брюс Гринвуд (Andrew Heyward), Стейси Кич (Lt. Colonel Bill Burkett), Джон Бенжамин Хикки (Mark Wrolstad), Дэвид Лайонс (Josh Howard), Дермот Малруни (Lawrence Lanpher), Рэйчел Блейк (Betsy West), Эндрю МакФарлэйн (Dick Hibey)

Описание:
В картине будет рассказываться о скандале, разразившемся после того, как суперпопулярный ведущий новостной программы на CBS Дэн Рэзер заявил в эфире о том, что Джордж Буш-мл. по блату попал в Национальную гвардию США, чтобы избежать отправки во Вьетнам (спасибо могучему папе Бушу-старшему, который на тот момент служил послом). После такой правды репутация Рэзера здорово пострадала, а его продюсера Мэри Мэйпс и вовсе уволили.

  • Мировая премьера:12 сентября 2015

    ТЕХ.ДАННЫЕ:
    Качество: HDRip
    Формат: AVI
    Видео: XviD, 720x304 (2.35:1), 1390 kbps, 23,976 fps, 0,265 bpp
    Аудио: AC3 / 2.0 / 48 kHz / 192 kbps / 16 bit


    General
    Complete name : D:\Торенты\5rA8dA.2015.L2.HDRip.1.45GB.avi
    Format : AVI
    Format/Info : Audio Video Interleave
    File size : 1.45 GiB
    Duration : 2h 5mn
    Overall bit rate : 1 657 Kbps
    Writing application : VirtualDubMod 1.5.10.3 | www.virtualdub-fr.org || (build 2550/release)
    Writing library : VirtualDubMod build 2550/release

    Video
    ID : 0
    Format : MPEG-4 Visual
    Format profile : Advanced Simple@L5
    Format settings, BVOP : 2
    Format settings, QPel : No
    Format settings, GMC : No warppoints
    Format settings, Matrix : Default (MPEG)
    Codec ID : XVID
    Codec ID/Hint : XviD
    Duration : 2h 5mn
    Bit rate : 1 391 Kbps
    Width : 720 pixels
    Height : 304 pixels
    Display aspect ratio : 2.35:1
    Frame rate : 23.976 fps
    Color space : YUV
    Chroma subsampling : 4:2:0
    Bit depth : 8 bits
    Scan type : Progressive
    Compression mode : Lossy
    Bits/(Pixel*Frame) : 0.265
    Stream size : 1.22 GiB (84%)
    Writing library : XviD 1.2.1 (UTC 2008-12-04)

    Audio
    ID : 1
    Format : AC-3
    Format/Info : Audio Coding 3
    Mode extension : CM (complete main)
    Codec ID : 2000
    Duration : 2h 5mn
    Bit rate mode : Constant
    Bit rate : 192 Kbps
    Channel(s) : 2 channels
    Channel positions : Front: L R
    Sampling rate : 48.0 KHz
    Bit depth : 16 bits
    Compression mode : Lossy
    Stream size : 172 MiB (12%)
    Alignment : Split accross interleaves
    Скриншоты:

    © Оформление by .::Ворон::.
    piratbit.org
    !Ворон писал(а):

    Есть реклама казино



  • Скачать Правда через торрент https://pic1.kartinco.top/images/61/ordi9.jpg Скачать, смотреть онлайн Правда бесплантно в хорошем качестве Описание: В картине будет рассказываться о скандале, разразившемся после того, как суперпопулярный ведущий новостной программы на CBS Дэн ... 4 10 3
    Торрент: Зарегистрирован [2016-02-01 15:22] · скачан: 78 раз
    Статус: T временная
    Размер: 1.45 GB
    Как cкачать? Как скачать Правда через торрент | UTorrent

    % Раздел Тема Автор DL S | L
    Зарубежные сериалы [ 35.33 GB ] По правде говоря / Truth Be Told / Сезон: 2 / Серии: 1-10 из 10 [2021 WEB-DL 1080p] MVO [Jaskier] bober100 Скачать
    1 | 0
    Зарубежные сериалы [ 12.44 GB ] По правде говоря / Truth Be Told / Сезон: 2 / Серии: 1-10 из 10 [2021 WEB-DL 720p] MVO [Jaskier] bober100 Скачать
    2 | 0
    Зарубежные сериалы [ 5.47 GB ] По правде говоря / Truth Be Told / Сезон: 2 / Серии: 1-10 из 10 [2021 WEB-DLRip] MVO [Jaskier] bober100 Скачать
    2 | 0
    Зарубежные сериалы [ 27.66 GB ] По правде говоря / Truth Be Told / Сезон: 1 / Серии: 1-8 из 8 [2019 WEB-DL 1080p] MVO [Jaskier] bober100 Скачать
    1 | 0
    Зарубежные сериалы [ 3.5 GB ] Искатели правды / Truth Seekers / Сезон: 1 / Серии 1-8 из 8 [2020 WEB-DLRip-AVC] MVO [LostFilm] GEKADOL Скачать
    2 | 0
    Зарубежные сериалы [ 15.54 GB ] Искатели правды / Искатели истины / Truth Seekers / Сезон: 1 / Серии: 1-8 из 8 [2020 WEB-DL 1080p] 2xMVO [NewStudio Jaskier] +DVO [IdeaFilm] bober100 Скачать
    1 | 0
    Зарубежные сериалы [ 8.16 GB ] Искатели правды / Искатели истины / Truth Seekers / Сезон: 1 / Серии: 1-8 из 8 [2020 WEB-DL 720p] 2xMVO [NewStudio Jaskier] +DVO [IdeaFilm] bober100 Скачать
    1 | 0

    28-11-2019 20:33  

    Отключить всю рекламу на сайте

    16-03-2016 15:12 Правда Скачать торрент  

    мутный фильм, вроде и расследование, а откровенно все слабенькоpiratbit.org



      Дорогой пользователь! Огромная просьба, поблагодарите релизера, оцените раздачу и оставьте свои комментарий, если Вы скачали Правда через торрент бесплатно!
      Комментировать посты могут только пользователи прошедшие не сложную регистрацию
      Показать сообщения:    

      Правда через торрент
      Скачать бесплатно Правда
      Правда скачать торрент
      Правда смотреть онлайн
      Cкачать фильм Правда бесплатно
      Правда скачать торрент в хорошем качестве
      Правда смотреть онлайн бесплатно в хорошем качестве


      Вы не можете начинать темы
      Вы не можете отвечать на сообщения
      Вы не можете редактировать свои сообщения
      Вы не можете удалять свои сообщения
      Вы не можете голосовать в опросах
      Вы не можете прикреплять файлы к сообщениям
      Вы можете скачивать файлы